Поиск

(Bossa nova) Vinicius de Moraes, Maria Bethânia, Toquinho - Vinicius+Bethania+Toquinho - 1971, FLAC (tracks+.cue) lossless

(Bossa nova) Vinicius de Moraes, Maria Bethânia, Toquinho - Vinicius+Bethania+Toquinho - 1971, FLAC (tracks+.cue) lossless
Треклист:
Vinicius de Moraes, Maria Bethânia, Toquinho / Vinicius+Bethania+Toquinho
Жанр: Bossa nova/MPB
Страна-производитель диска: Аргентина
Год издания диска: 1971
Издатель (лейбл): RP Music
Номер по каталогу: RR 548
Страна: Бразилия
Аудио кодек: FLAC (*.flac)
Тип рипа: tracks+.cue
Битрейт аудио: lossless
Продолжительность: 41:46.89
Источник (релизер): Мой CD.
Наличие сканов в содержимом раздачи: да
Треклист:
01. A Tonga da Mironga do Kabulete
02. É de Manhã
03. Samba da Rosa
04. Testamento
05. Samba da Benção
06. Tarde em Itapoã
07. Viramundo
08. Apelo
09. Como Dizia o Poeta
10. O Que Tinha de Ser
11. O Dia da Criação
 
Scans

 
 

 
Лог EAC
Exact Audio Copy V1.0 beta 1 from 15. November 2010
EAC extraction logfile from 20. December 2010, 16:00
Vinicius de Moraes, Maria Bethânia, Toquinho / Vinicius+Bethânia+Toquinho
Used drive : TSSTcorpCDDVDW TS-L633C Adapter: 0 ID: 1
Read mode : Secure
Utilize accurate stream : Yes
Defeat audio cache : Yes
Make use of C2 pointers : No
Read offset correction : 6
Overread into Lead-In and Lead-Out : No
Fill up missing offset samples with silence : Yes
Delete leading and trailing silent blocks : No
Null samples used in CRC calculations : Yes
Used interface : Native Win32 interface for Win NT & 2000
Gap handling : Appended to previous track
Used output format : User Defined Encoder
Selected bitrate : 1024 kBit/s
Quality : High
Add ID3 tag : No
Command line compressor : C:\Program Files (x86)\Exact Audio Copy\FLAC\FLAC.EXE
Additional command line options : -8 -V -T "ARTIST=%a" -T "TITLE=%t" -T "ALBUM=%g" -T "DATE=%y" -T "TRACKNUMBER=%n" -T "GENRE=%m" -T "COMMENT=%e" %j--picture="%i"%j %s -o %d
TOC of the extracted CD
Track | Start | Length | Start sector | End sector
---------------------------------------------------------
1 | 0:00.00 | 4:11.36 | 0 | 18860
2 | 4:11.36 | 2:59.30 | 18861 | 32315
3 | 7:10.66 | 2:40.02 | 32316 | 44317
4 | 9:50.68 | 2:17.37 | 44318 | 54629
5 | 12:08.30 | 9:17.65 | 54630 | 96469
6 | 21:26.20 | 4:36.43 | 96470 | 117212
7 | 26:02.63 | 2:00.28 | 117213 | 126240
8 | 28:03.16 | 3:32.42 | 126241 | 142182
9 | 31:35.58 | 3:47.01 | 142183 | 159208
10 | 35:22.59 | 1:56.40 | 159209 | 167948
11 | 37:19.24 | 4:27.65 | 167949 | 188038
Track 1
Filename C:\Users\Cako\Music\01. Vinicius de Moraes, Maria Bethânia, Toquinho - A Tonga da Mironga do Kabulete.wav
Pre-gap length 0:00:02.00
Peak level 100.0 %
Extraction speed 1.0 X
Track quality 100.0 %
Test CRC 18BBD2C1
Copy CRC 18BBD2C1
Cannot be verified as accurate (confidence 3) [E5F94029], AccurateRip returned [39C66C8B]
Copy OK
Track 2
Filename C:\Users\Cako\Music\02. Vinicius de Moraes, Maria Bethânia, Toquinho - É de Manhã.wav
Pre-gap length 0:00:00.60
Peak level 100.0 %
Extraction speed 1.0 X
Track quality 100.0 %
Test CRC 4561072D
Copy CRC 4561072D
Cannot be verified as accurate (confidence 3) [89D75899], AccurateRip returned [1FDFF3A0]
Copy OK
Track 3
Filename C:\Users\Cako\Music\03. Vinicius de Moraes, Maria Bethânia, Toquinho - Samba da Rosa.wav
Peak level 100.0 %
Extraction speed 1.0 X
Track quality 100.0 %
Test CRC 62EACACD
Copy CRC 62EACACD
Cannot be verified as accurate (confidence 3) [1AE0CC33], AccurateRip returned [01987DC7]
Copy OK
Track 4
Filename C:\Users\Cako\Music\04. Vinicius de Moraes, Maria Bethânia, Toquinho - Testamento.wav
Peak level 100.0 %
Extraction speed 0.8 X
Track quality 99.9 %
Test CRC FFCA84E9
Copy CRC FFCA84E9
Cannot be verified as accurate (confidence 3) [F7160D3F], AccurateRip returned [68079432]
Copy OK
Track 5
Filename C:\Users\Cako\Music\05. Vinicius de Moraes, Maria Bethânia, Toquinho - Samba da Benção.wav
Peak level 100.0 %
Extraction speed 1.3 X
Track quality 99.9 %
Test CRC AECAB2EF
Copy CRC AECAB2EF
Cannot be verified as accurate (confidence 3) [B279E123], AccurateRip returned [A8D824CF]
Copy OK
Track 6
Filename C:\Users\Cako\Music\06. Vinicius de Moraes, Maria Bethânia, Toquinho - Tarde em Itapoã.wav
Peak level 100.0 %
Extraction speed 1.4 X
Track quality 100.0 %
Test CRC BB0BB8B4
Copy CRC BB0BB8B4
Cannot be verified as accurate (confidence 3) [F00BCFDA], AccurateRip returned [499E7DF6]
Copy OK
Track 7
Filename C:\Users\Cako\Music\07. Vinicius de Moraes, Maria Bethânia, Toquinho - Viramundo.wav
Peak level 100.0 %
Extraction speed 1.2 X
Track quality 100.0 %
Test CRC CEFA667C
Copy CRC CEFA667C
Cannot be verified as accurate (confidence 3) [256A6A21], AccurateRip returned [34ABE0D0]
Copy OK
Track 8
Filename C:\Users\Cako\Music\08. Vinicius de Moraes, Maria Bethânia, Toquinho - Apelo.wav
Peak level 100.0 %
Extraction speed 1.4 X
Track quality 100.0 %
Test CRC 432052F6
Copy CRC 432052F6
Cannot be verified as accurate (confidence 3) [C51D31CD], AccurateRip returned [D992A0E8]
Copy OK
Track 9
Filename C:\Users\Cako\Music\09. Vinicius de Moraes, Maria Bethânia, Toquinho - Como Dizia o Poeta.wav
Peak level 100.0 %
Extraction speed 1.5 X
Track quality 100.0 %
Test CRC 2D22CD74
Copy CRC 2D22CD74
Cannot be verified as accurate (confidence 3) [48E78AB4], AccurateRip returned [FF67D8D2]
Copy OK
Track 10
Filename C:\Users\Cako\Music\10. Vinicius de Moraes, Maria Bethânia, Toquinho - O Que Tinha de Ser.wav
Peak level 100.0 %
Extraction speed 1.0 X
Track quality 99.9 %
Test CRC 6937CC06
Copy CRC 6937CC06
Cannot be verified as accurate (confidence 3) [BB8F3528], AccurateRip returned [EA1010F1]
Copy OK
Track 11
Filename C:\Users\Cako\Music\11. Vinicius de Moraes, Maria Bethânia, Toquinho - O Dia da Criação.wav
Peak level 100.0 %
Extraction speed 1.6 X
Track quality 100.0 %
Test CRC 4DDF2E92
Copy CRC 4DDF2E92
Cannot be verified as accurate (confidence 3) [72D6256B], AccurateRip returned [DBD4F369]
Copy OK
No tracks could be verified as accurate
You may have a different pressing from the one(s) in the database
No errors occurred
End of status report
 
Содержание индексной карты (.CUE)
REM GENRE "Bossa nova"
REM DATE 1971
REM DISCID 9109CB0B
REM COMMENT "ExactAudioCopy v1.0b1"
PERFORMER "Vinicius de Moraes, Maria Bethânia, Toquinho"
TITLE "Vinicius+Bethânia+Toquinho"
FILE "01. Vinicius de Moraes, Maria Bethânia, Toquinho - A Tonga da Mironga do Kabulete.flac" WAVE
TRACK 01 AUDIO
TITLE "A Tonga da Mironga do Kabulete"
PERFORMER "Vinicius de Moraes, Maria Bethânia, Toquinho"
INDEX 01 00:00:00
TRACK 02 AUDIO
TITLE "É de Manhã"
PERFORMER "Vinicius de Moraes, Maria Bethânia, Toquinho"
INDEX 00 04:10:51
FILE "02. Vinicius de Moraes, Maria Bethânia, Toquinho - É de Manhã.flac" WAVE
INDEX 01 00:00:00
FILE "03. Vinicius de Moraes, Maria Bethânia, Toquinho - Samba da Rosa.flac" WAVE
TRACK 03 AUDIO
TITLE "Samba da Rosa"
PERFORMER "Vinicius de Moraes, Maria Bethânia, Toquinho"
INDEX 01 00:00:00
FILE "04. Vinicius de Moraes, Maria Bethânia, Toquinho - Testamento.flac" WAVE
TRACK 04 AUDIO
TITLE "Testamento"
PERFORMER "Vinicius de Moraes, Maria Bethânia, Toquinho"
INDEX 01 00:00:00
FILE "05. Vinicius de Moraes, Maria Bethânia, Toquinho - Samba da Benção.flac" WAVE
TRACK 05 AUDIO
TITLE "Samba da Benção"
PERFORMER "Vinicius de Moraes, Maria Bethânia, Toquinho"
INDEX 01 00:00:00
FILE "06. Vinicius de Moraes, Maria Bethânia, Toquinho - Tarde em Itapoã.flac" WAVE
TRACK 06 AUDIO
TITLE "Tarde em Itapoã"
PERFORMER "Vinicius de Moraes, Maria Bethânia, Toquinho"
INDEX 01 00:00:00
FILE "07. Vinicius de Moraes, Maria Bethânia, Toquinho - Viramundo.flac" WAVE
TRACK 07 AUDIO
TITLE "Viramundo"
PERFORMER "Vinicius de Moraes, Maria Bethânia, Toquinho"
INDEX 01 00:00:00
FILE "08. Vinicius de Moraes, Maria Bethânia, Toquinho - Apelo.flac" WAVE
TRACK 08 AUDIO
TITLE "Apelo"
PERFORMER "Vinicius de Moraes, Maria Bethânia, Toquinho"
INDEX 01 00:00:00
FILE "09. Vinicius de Moraes, Maria Bethânia, Toquinho - Como Dizia o Poeta.flac" WAVE
TRACK 09 AUDIO
TITLE "Como Dizia o Poeta"
PERFORMER "Vinicius de Moraes, Maria Bethânia, Toquinho"
INDEX 01 00:00:00
FILE "10. Vinicius de Moraes, Maria Bethânia, Toquinho - O Que Tinha de Ser.flac" WAVE
TRACK 10 AUDIO
TITLE "O Que Tinha de Ser"
PERFORMER "Vinicius de Moraes, Maria Bethânia, Toquinho"
INDEX 01 00:00:00
FILE "11. Vinicius de Moraes, Maria Bethânia, Toquinho - O Dia da Criação.flac" WAVE
TRACK 11 AUDIO
TITLE "O Dia da Criação"
PERFORMER "Vinicius de Moraes, Maria Bethânia, Toquinho"
INDEX 01 00:00:00
18:49
279
Нет комментариев. Ваш будет первым!