Поиск

(Tango Nuevo / Latin Jazz) Astor Piazzolla - Tanguedia de Amor (1989) - 1997, FLAC (image+.cue) lossless

(Tango Nuevo / Latin Jazz) Astor Piazzolla - Tanguedia de Amor (1989) - 1997, FLAC (image+.cue) lossless
Треклист:
Astor Piazzolla - Tanguedia de Amor (1989) - 1997
Жанр: Tango Nuevo / Latin Jazz
Страна-производитель диска: USA
Год издания диска: (1989) 1997
Издатель (лейбл): Milan ~ BMG
Номер по каталогу: 73138-35807-2
Страна: Argentina
Аудио кодек: FLAC (*.flac)
Тип рипа: image+.cue
Битрейт аудио: lossless
Продолжительность: 34:56
Источник (релизер): собственный рип с оригинального CD (Darkman)
Наличие сканов в содержимом раздачи: да (полный набор сканов, 300 dpi)
Треклист:
1. Vuelvo al Sur
2. Regreso al Amor
3. Tristeza, Separación
4. Los Sueños
5. Tanguedía III
6. Duo de Amor
7. Ausencias
8. Mumuki
9. Milonga Loca
 
Лог создания рипа (EAC Log)
Exact Audio Copy V0.99 prebeta 5 from 4. May 2009
EAC extraction logfile from 15. October 2010, 10:10
Astor Piazzolla / Tanguedia de Amor
Used drive : HL-DT-STDVD-RAM GSA-H54N Adapter: 0 ID: 0
Read mode : Secure
Utilize accurate stream : Yes
Defeat audio cache : Yes
Make use of C2 pointers : No
Read offset correction : 102
Overread into Lead-In and Lead-Out : No
Fill up missing offset samples with silence : Yes
Delete leading and trailing silent blocks : No
Null samples used in CRC calculations : Yes
Used interface : Native Win32 interface for Win NT & 2000
Used output format : User Defined Encoder
Selected bitrate : 320 kBit/s
Quality : High
Add ID3 tag : No
Command line compressor : C:\Program Files\Exact Audio Copy\Flac\flac.exe
Additional command line options : -8 -V %s
TOC of the extracted CD
Track | Start | Length | Start sector | End sector
---------------------------------------------------------
1 | 0:00.00 | 4:03.52 | 0 | 18276
2 | 4:03.52 | 6:20.05 | 18277 | 46781
3 | 10:23.57 | 2:55.40 | 46782 | 59946
4 | 13:19.22 | 2:59.40 | 59947 | 73411
5 | 16:18.62 | 3:48.08 | 73412 | 90519
6 | 20:06.70 | 4:58.50 | 90520 | 112919
7 | 25:05.45 | 3:31.72 | 112920 | 128816
8 | 28:37.42 | 2:35.13 | 128817 | 140454
9 | 31:12.55 | 3:43.57 | 140455 | 157236
Range status and errors
Selected range
Filename C:\EAC\Astor Piazzolla - Tanguedia de Amor.wav
Peak level 79.9 %
Range quality 100.0 %
Test CRC 7DD3C248
Copy CRC 7DD3C248
Copy OK
No errors occurred
AccurateRip summary
Track 1 not present in database
Track 2 not present in database
Track 3 not present in database
Track 4 not present in database
Track 5 not present in database
Track 6 not present in database
Track 7 not present in database
Track 8 not present in database
Track 9 not present in database
None of the tracks are present in the AccurateRip database
End of status report
 
CD
 
Pic)))
 
Back
 
Customer Reviews @ Amazon
Customer Reviews:
5.0 out of 5 stars - one of the greatest, February 15, 2004
By: "pierremelville" (los angeles, ca United States)
If there were a top ten CD list of favorites to live on a desert isle with, this one would certainly be on it. It just gets better and better upon repeated listenings, and
I've been listening to it for many years now.
----------
5.0 out of 5 stars - The essence of tango and the wizard touch, October 4, 2000
By: jocelyne L. (Saint Etienne FRANCE))
I first ordered this CD few years after seeing the movie "El Sur". Most of the pieces are from the soundtrack of this bewitching film.
This music brings the soul of Astor Piazolla tango, the secret heart of Buenos-Aires, the magic of Argentina. And more than this, this masterpiece is a perfect and subtle alchemy made with contrast and harmony. It's a story of love and pain that melts the traditional features or tango and contemporaneous inspiration. The performance is immaculate. It's a breathless trip in the clever and unique multidimensional and sensuous world of Piazolla.
19:50
257
Нет комментариев. Ваш будет первым!