Поиск

(Afro-beat) The Complete Works Of Fela Anikulapo Kuti - 46 Albums in 26CD Box Set [Wrasse Records] - 2010, FLAC (image+.cue) lossless

(Afro-beat) The Complete Works Of Fela Anikulapo Kuti - 46 Albums in 26CD Box Set [Wrasse Records] - 2010, FLAC (image+.cue) lossless
Треклист:
The Complete Works Of Fela Anikulapo Kuti
Жанр: Afrobeat
Страна-производитель диска: UK
Год издания диска: 2010
Издатель (лейбл): Wrasse Records
Номер по каталогу: WRASS276
Аудио кодек: FLAC (*.flac)
Тип рипа: image+.cue
Битрейт аудио: lossless
Источник (релизер): cd
Наличие сканов в содержимом раздачи: нет
Доп. информация: Box Set, Limited Edition, Reissue, Remastered
Disc#27 - DVD: A Slice Of Fela >>>>> http://rutracker.org/forum/viewtopic.php?t=3464263
 
Треклисты
 
CD One: Open And Close / Afrodisiac
1-1 Open & Close (14:55)
1-2 Swegbe And Pako (12:30)
1-3 Gbagada Gbagada Gbagodo Gbogodo (9:19)
1-4 Alu Jon Jonki Jon (12:41)
1-5 Jeun Ko Ku (Chop 'n Quench) (7:14)
1-6 Eko Ile (6:41)
1-7 Je Nwi Temi (Don't Gag Me) (13:15)
 
CD Two: J.J.D. (Johnny Just Drop) / Unnecessary Begging
2-1 J.J.D. (Johnny Just Drop) (23:22)
2-2 Unnecessary Begging (16:11)
2-3 No Buredi (No Bread) (14:05)
 
CD Three: Zombie
3-1 Zombie (12:26)
3-2 Mister Follow Follow (12:57)
3-3 Observation Is No Crime (13:25)
3-4 Mistake (14:46)
 
CD Four: Underground System
4-1 Underground System (28:27)
4-2 Pansa Pansa (17:20)
4-3 Confusion Break Bones (29:10)
 
CD Five: Fela With Ginger Baker Live!
5-1 Let's Start (7:47)
5-2 Black Man's Cry (11:38)
5-3 Yeye De Smell (13:16)
5-4 Egbe Mi O (Carry Me I Want To Die) (12:40)
5-5 Ginger Baker & Tony Allen Drum Solo (16:21)
 
CD Six: Live In Amsterdam
6-1 M.O.P. (Movement Of The People) (37:04)
6-2 You Gimme Shit I Give You Shit (24:59)
6-3 Custom Check Point (16:02)
 
CD Seven: VIP / Authority Stealing
7-1 V.I.P. (Part 1 & 2) (20:10)
7-2 Authority Stealing (Part 1 & 2) (24:08)
 
CD Eight: Yellow Fever / Na Poi
8-1 Yellow Fever (15:22)
8-2 Na Poi (1975 Version) (13:32)
8-3 Na Poi (Part 1 And 2) (25:17)
8-4 You No Go Die... Unless (7:34)
 
CD Nine: Alagbon Close / Why Black Man Dey Suffer
9-1 Alagbon Close (17:30)
9-2 I No Get Eye For Back (11:24)
9-3 Why Black Man Dey Suffer (15:15)
9-4 Ikoyi Mentality Versus Mushin' Mentality (12:57)
 
CD Ten (One): Before I Jump Like Monkey Give Me Banana / Excuse-O
10-1 Monkey Banana (11:36)
10-2 Sense Wiseness (12:57)
10-3 Excuse 0)13:35)
10-4 Mr. Grammarticalogylisationalism Is The Boss (16:35)
 
CD Eleven (Two): Everything Scatter / Noise For Vendor Mouth
11-1 Everything Scatter (10:34)
11-2 Who No Know Go Know (15:09)
11-3 Noise For Vendor Mouth (15:23)
11-4 Mattress (13:54)
 
CD Twelve (Three): Teacher Don't Teach Me Nonsense
12-1 Teacher Don't Teach Me Nonsense (25:48)
12-2 Look And Laugh (30:49)
12-3 Just Like That (22:17)
 
CD Thirteen (Four): Koola Lobitos 64-68 / The '69 Los Angeles Sessions
13-1 Highlife Time (5:23)
13-2 Omuti Tide (3:51)
13-3 Ololufe Mi (5:18)
13-4 Wadele Wa Rohin (4:07)
13-5 Laise Lairo (4:14)
13-6 Wayo (4:43)
13-7 My Lady Frustration (7:01)
13-8 Viva Nigeria (3:47)
13-9 Obe (3:13)
13-10 Ako (2:43)
13-11 Witchcraft (5:27)
13-12 Wayo (2nd Version) (3:29)
13-13 Lover (6:11)
13-14 Funky Horn (4:44)
13-15 Eko (4:15)
13-16 This Is Sad (4:23)
 
CD Fourteen (Five): Roforofo Fight / The Fela Singles
14-1 Roforofo Fight (15:41)
14-2 Go Slow (17:24)
14-3 Question Jam Answer (13:40)
14-4 Trouble Sleep Yanga Wake Am (12:05)
14-5 Shenshema Answer (9:09)
14-6 Ariya (10:18)
 
CD Fifteen (Six): Confusion / Gentleman
15-1 Confusion (Part 1 & 2) (25:37)
15-2 Gentleman (14:41)
15-3 Fefe Naa Efe (8:12)
15-4 Igbe (8:08)
 
CD Sixteen (Seven): Shakara / Fela's London Scene
16-1 Lady (13:49)
16-2 Shakara (13:25)
16-3 J'Ehin J'Ehin (7:26)
16-4 Egbe Mi O (13:15)
16-5 Who're You (9:30)
16-6 Buy Africa (5:50)
16-7 Fight To Finish (7:25)
 
CD Seventeen (Eight): Expensive Shit / He Miss Road
17-1 Expensive Shit (13:14)
17-2 Water No Get Enemy (11:00)
17-3 He Miss Road (10:47)
17-4 Monday Morning In Lagos (11:15)
17-5 It's No Possible (17:37)
 
CD Eighteen (Nine): Stalemate / Fear Not For Man
18-1 Stalemate (12:55)
18-2 Dont't Worry About My Mouth O (15:44)
18-3 Fear Not For Man (14:14)
18-4 Palm Wine Sound (15:17)
 
CD Nineteen (One): Ikoyi Blindness / Kalakuta Show
19-1 Ikoyi Blindness (15:08)
19-2 Gba Mi Leti Ki N'Dolowo (14:13)
19-3 Kalakuta Show (14:31)
19-4 Don't Make Garan Garan (16:04)
 
CD Twenty (Two): Upside Down / Music Of Many Colours
20-1 Upside Down (14:44)
20-2 Go Slow (14:36)
20-3 2000 Blacks Got To Be Free (18:38)
20-4 Africa Centre Of The World (17:31)
 
CD Twenty One (Three): Beasts Of No Nation / ODOO
21-1 Beasts Of No Nation (28:20)
21-2 O.D.O.O. (31:54)
 
CD Twenty Two (Four): Army Arrangement
22-1 Army Arrangement (30:01)
22-2 Government Chicken Boy (29:15)
 
CD Twenty Three (Five): Coffin For Head Of State / Unknown Soldier
23-1 Coffin For Head Of State (22:43)
23-2 Unknown Soldier (Part 1 And 2) (31:09)
 
CD Twenty Four (Six): Shuffering And Shmiling / No Agreement
24-1 Shuffering And Shmiling (21:34)
24-2 No Agreement (15:31)
24-3 Dog Eat Dog (15:33)
 
CD Twenty Five (Seven): Opposite People / Sorrow Tears And Blood
25-1 Opposite People (16:39)
25-2 Equalisation Of Trouser And Pant (16:42)
25-3 Sorrow Tears And Blood (10:15)
25-4 Colonial Mentality (13:42)
 
CD Twenty Six (Eight): Original Sufferhead / ITT
26-1 Original Sufferhead (21:10)
26-2 Power Show (14:48)
26-3 I.T.T. (24:03
 
Логи создания рипа
 
CD01
Exact Audio Copy V1.0 beta 1 from 15. November 2010
EAC extraction logfile from 18. December 2010, 18:38
Fela Kuti / Open & Close / Afrodisiac (The Complete Works Of Fela Anikulapo Kuti CD1)
Used drive : ASUS CRW-4816A Adapter: 2 ID: 1
Read mode : Secure
Utilize accurate stream : Yes
Defeat audio cache : Yes
Make use of C2 pointers : No
Read offset correction : 12
Overread into Lead-In and Lead-Out : No
Fill up missing offset samples with silence : Yes
Delete leading and trailing silent blocks : No
Null samples used in CRC calculations : Yes
Used interface : Installed external ASPI interface
Used output format : User Defined Encoder
Selected bitrate : 1024 kBit/s
Quality : High
Add ID3 tag : No
Command line compressor : C:\Program Files\Exact Audio Copy\Flac\flac.exe
Additional command line options : -8 -V %s
TOC of the extracted CD
Track | Start | Length | Start sector | End sector
---------------------------------------------------------
1 | 0:00.00 | 14:55.58 | 0 | 67182
2 | 14:55.58 | 12:30.16 | 67183 | 123448
3 | 27:25.74 | 9:19.63 | 123449 | 165436
4 | 36:45.62 | 12:41.32 | 165437 | 222543
5 | 49:27.19 | 7:14.54 | 222544 | 255147
6 | 56:41.73 | 6:41.04 | 255148 | 285226
7 | 63:23.02 | 13:15.31 | 285227 | 344882
Range status and errors
Selected range
Filename J:\temp\nnm\CD01 Fela Kuti - Open And Close Afrodisiac.wav
Peak level 100.0 %
Extraction speed 1.6 X
Range quality 99.9 %
Test CRC 6881ACF6
Copy CRC 6881ACF6
Copy OK
No errors occurred
AccurateRip summary
Track 1 not present in database
Track 2 not present in database
Track 3 not present in database
Track 4 not present in database
Track 5 not present in database
Track 6 not present in database
Track 7 not present in database
None of the tracks are present in the AccurateRip database
End of status report
 
CD02
Exact Audio Copy V1.0 beta 1 from 15. November 2010
EAC extraction logfile from 18. December 2010, 18:57
Fela Kuti / J.J.D. & Unnecessary Begging (The Complete Works Of Fela Anikulapo Kuti CD2)
Used drive : ASUS CRW-4816A Adapter: 2 ID: 1
Read mode : Secure
Utilize accurate stream : Yes
Defeat audio cache : Yes
Make use of C2 pointers : No
Read offset correction : 12
Overread into Lead-In and Lead-Out : No
Fill up missing offset samples with silence : Yes
Delete leading and trailing silent blocks : No
Null samples used in CRC calculations : Yes
Used interface : Installed external ASPI interface
Used output format : User Defined Encoder
Selected bitrate : 1024 kBit/s
Quality : High
Add ID3 tag : No
Command line compressor : C:\Program Files\Exact Audio Copy\Flac\flac.exe
Additional command line options : -8 -V %s
TOC of the extracted CD
Track | Start | Length | Start sector | End sector
---------------------------------------------------------
1 | 0:00.00 | 23:22.43 | 0 | 105192
2 | 23:22.43 | 16:11.29 | 105193 | 178046
3 | 39:33.72 | 14:05.48 | 178047 | 241469
Range status and errors
Selected range
Filename J:\temp\nnm\CD02 Fela Kuti - JJD And Unnecessary Begging.wav
Peak level 100.0 %
Extraction speed 2.3 X
Range quality 100.0 %
Test CRC 0C985F90
Copy CRC 0C985F90
Copy OK
No errors occurred
AccurateRip summary
Track 1 cannot be verified as accurate (confidence 3) [83ABEE1F], AccurateRip returned [DB4A01D5]
Track 2 cannot be verified as accurate (confidence 3) [8B48D3C4], AccurateRip returned [AB19B738]
Track 3 cannot be verified as accurate (confidence 3) [DB6887CE], AccurateRip returned [9EAD7906]
No tracks could be verified as accurate
You may have a different pressing from the one(s) in the database
End of status report
 
CD03
Exact Audio Copy V1.0 beta 1 from 15. November 2010
EAC extraction logfile from 18. December 2010, 20:01
Fela Kuti / Zombie (The Complete Works Of Fela Anikulapo Kuti CD3)
Used drive : ASUS CRW-4816A Adapter: 2 ID: 1
Read mode : Secure
Utilize accurate stream : Yes
Defeat audio cache : Yes
Make use of C2 pointers : No
Read offset correction : 12
Overread into Lead-In and Lead-Out : No
Fill up missing offset samples with silence : Yes
Delete leading and trailing silent blocks : No
Null samples used in CRC calculations : Yes
Used interface : Installed external ASPI interface
Used output format : User Defined Encoder
Selected bitrate : 1024 kBit/s
Quality : High
Add ID3 tag : No
Command line compressor : C:\Program Files\Exact Audio Copy\Flac\flac.exe
Additional command line options : -8 -V %s
TOC of the extracted CD
Track | Start | Length | Start sector | End sector
---------------------------------------------------------
1 | 0:00.00 | 12:26.26 | 0 | 55975
2 | 12:26.26 | 12:57.53 | 55976 | 114303
3 | 25:24.04 | 13:25.48 | 114304 | 174726
4 | 38:49.52 | 14:46.59 | 174727 | 241235
Range status and errors
Selected range
Filename J:\temp\nnm\CD03 Fela Kuti - Zombie.wav
Peak level 100.0 %
Extraction speed 0.7 X
Range quality 100.0 %
Test CRC AD02C496
Copy CRC AD02C496
Copy OK
No errors occurred
AccurateRip summary
Track 1 cannot be verified as accurate (confidence 6) [7327F71C], AccurateRip returned [033175C2]
Track 2 cannot be verified as accurate (confidence 6) [C8F59599], AccurateRip returned [AFB2154B]
Track 3 cannot be verified as accurate (confidence 6) [A3C6F4A2], AccurateRip returned [0B4B2EC6]
Track 4 cannot be verified as accurate (confidence 6) [CBEDE6C3], AccurateRip returned [FD376609]
No tracks could be verified as accurate
You may have a different pressing from the one(s) in the database
End of status report
 
CD04
Exact Audio Copy V1.0 beta 1 from 15. November 2010
EAC extraction logfile from 18. December 2010, 20:22
Fela Kuti / Underground System (The Complete Works Of Fela Anikulapo Kuti CD4)
Used drive : ASUS CRW-4816A Adapter: 2 ID: 1
Read mode : Secure
Utilize accurate stream : Yes
Defeat audio cache : Yes
Make use of C2 pointers : No
Read offset correction : 12
Overread into Lead-In and Lead-Out : No
Fill up missing offset samples with silence : Yes
Delete leading and trailing silent blocks : No
Null samples used in CRC calculations : Yes
Used interface : Installed external ASPI interface
Used output format : User Defined Encoder
Selected bitrate : 1024 kBit/s
Quality : High
Add ID3 tag : No
Command line compressor : C:\Program Files\Exact Audio Copy\Flac\flac.exe
Additional command line options : -8 -V %s
TOC of the extracted CD
Track | Start | Length | Start sector | End sector
---------------------------------------------------------
1 | 0:00.00 | 28:27.40 | 0 | 128064
2 | 28:27.40 | 17:20.67 | 128065 | 206131
3 | 45:48.32 | 29:10.71 | 206132 | 337452
Range status and errors
Selected range
Filename J:\temp\nnm\CD04 Fela Kuti - Underground System.wav
Peak level 100.0 %
Extraction speed 3.9 X
Range quality 100.0 %
Test CRC 63D398F2
Copy CRC 63D398F2
Copy OK
No errors occurred
AccurateRip summary
Track 1 not present in database
Track 2 not present in database
Track 3 not present in database
None of the tracks are present in the AccurateRip database
End of status report
 
CD05
Exact Audio Copy V1.0 beta 1 from 15. November 2010
EAC extraction logfile from 18. December 2010, 20:42
Fela Kuti With Ginger Baker / Live! (The Complete Works Of Fela Anikulapo Kuti CD5)
Used drive : ASUS CRW-4816A Adapter: 2 ID: 1
Read mode : Secure
Utilize accurate stream : Yes
Defeat audio cache : Yes
Make use of C2 pointers : No
Read offset correction : 12
Overread into Lead-In and Lead-Out : No
Fill up missing offset samples with silence : Yes
Delete leading and trailing silent blocks : No
Null samples used in CRC calculations : Yes
Used interface : Installed external ASPI interface
Used output format : User Defined Encoder
Selected bitrate : 1024 kBit/s
Quality : High
Add ID3 tag : No
Command line compressor : C:\Program Files\Exact Audio Copy\Flac\flac.exe
Additional command line options : -8 -V %s
TOC of the extracted CD
Track | Start | Length | Start sector | End sector
---------------------------------------------------------
1 | 0:00.00 | 7:47.17 | 0 | 35041
2 | 7:47.17 | 11:38.28 | 35042 | 87419
3 | 19:25.45 | 13:16.64 | 87420 | 147183
4 | 32:42.34 | 12:40.32 | 147184 | 204215
5 | 45:22.66 | 16:21.30 | 204216 | 277820
Range status and errors
Selected range
Filename J:\temp\nnm\CD05 Fela Kuti With Ginger Baker - Live.wav
Peak level 100.0 %
Extraction speed 2.3 X
Range quality 100.0 %
Test CRC DB454A13
Copy CRC DB454A13
Copy OK
No errors occurred
AccurateRip summary
Track 1 cannot be verified as accurate (confidence 16) [37597E7F], AccurateRip returned [2ADE9944]
Track 2 cannot be verified as accurate (confidence 14) [35B63738], AccurateRip returned [63DDC48B]
Track 3 cannot be verified as accurate (confidence 14) [B871EADD], AccurateRip returned [49D8B952]
Track 4 cannot be verified as accurate (confidence 14) [39A9878F], AccurateRip returned [CEC4DBE6]
Track 5 cannot be verified as accurate (confidence 14) [0CF302E1], AccurateRip returned [831A3CE9]
No tracks could be verified as accurate
You may have a different pressing from the one(s) in the database
End of status report
 
CD06
Exact Audio Copy V1.0 beta 1 from 15. November 2010
EAC extraction logfile from 18. December 2010, 22:07
Fela Kuti / Live In Amsterdam (The Complete Works Of Fela Anikulapo Kuti CD6)
Used drive : ASUS CRW-4816A Adapter: 2 ID: 1
Read mode : Secure
Utilize accurate stream : Yes
Defeat audio cache : Yes
Make use of C2 pointers : No
Read offset correction : 12
Overread into Lead-In and Lead-Out : No
Fill up missing offset samples with silence : Yes
Delete leading and trailing silent blocks : No
Null samples used in CRC calculations : Yes
Used interface : Installed external ASPI interface
Used output format : User Defined Encoder
Selected bitrate : 1024 kBit/s
Quality : High
Add ID3 tag : No
Command line compressor : C:\Program Files\Exact Audio Copy\Flac\flac.exe
Additional command line options : -8 -V %s
TOC of the extracted CD
Track | Start | Length | Start sector | End sector
---------------------------------------------------------
1 | 0:00.00 | 37:04.08 | 0 | 166807
2 | 37:04.08 | 24:59.29 | 166808 | 279261
3 | 62:03.37 | 16:02.31 | 279262 | 351442
Range status and errors
Selected range
Filename J:\temp\nnm\CD06 Fela Kuti - Live In Amsterdam.wav
Peak level 100.0 %
Extraction speed 2.1 X
Range quality 100.0 %
Test CRC FBC305AF
Copy CRC FBC305AF
Copy OK
No errors occurred
AccurateRip summary
Track 1 cannot be verified as accurate (confidence 2) [3FBD76DD], AccurateRip returned [F94827AE]
Track 2 cannot be verified as accurate (confidence 2) [26684563], AccurateRip returned [FFEA5253]
Track 3 cannot be verified as accurate (confidence 2) [321318DF], AccurateRip returned [EBE14DE4]
No tracks could be verified as accurate
You may have a different pressing from the one(s) in the database
End of status report
 
CD07
Exact Audio Copy V1.0 beta 1 from 15. November 2010
EAC extraction logfile from 18. December 2010, 21:43
Fela Kuti / V.I.P. / Authority Stealing (The Complete Works Of Fela Anikulapo Kuti CD7)
Used drive : ASUS CRW-4816A Adapter: 2 ID: 1
Read mode : Secure
Utilize accurate stream : Yes
Defeat audio cache : Yes
Make use of C2 pointers : No
Read offset correction : 12
Overread into Lead-In and Lead-Out : No
Fill up missing offset samples with silence : Yes
Delete leading and trailing silent blocks : No
Null samples used in CRC calculations : Yes
Used interface : Installed external ASPI interface
Used output format : User Defined Encoder
Selected bitrate : 1024 kBit/s
Quality : High
Add ID3 tag : No
Command line compressor : C:\Program Files\Exact Audio Copy\Flac\flac.exe
Additional command line options : -8 -V %s
TOC of the extracted CD
Track | Start | Length | Start sector | End sector
---------------------------------------------------------
1 | 0:00.27 | 20:10.05 | 27 | 90781
2 | 20:10.32 | 24:08.58 | 90782 | 199439
Range status and errors
Selected range
Filename J:\temp\nnm\CD07 Fela Kuti - VIP Authority Stealing.wav
Peak level 99.2 %
Extraction speed 1.8 X
Range quality 99.9 %
Test CRC F4855566
Copy CRC F4855566
Copy OK
No errors occurred
AccurateRip summary
Track 1 not present in database
Track 2 not present in database
None of the tracks are present in the AccurateRip database
End of status report
 
CD08
Exact Audio Copy V1.0 beta 1 from 15. November 2010
EAC extraction logfile from 18. December 2010, 22:31
Fela Kuti / Yellow Fever & Na Poi (The Complete Works Of Fela Anikulapo Kuti CD8)
Used drive : ASUS CRW-4816A Adapter: 2 ID: 1
Read mode : Secure
Utilize accurate stream : Yes
Defeat audio cache : Yes
Make use of C2 pointers : No
Read offset correction : 12
Overread into Lead-In and Lead-Out : No
Fill up missing offset samples with silence : Yes
Delete leading and trailing silent blocks : No
Null samples used in CRC calculations : Yes
Used interface : Installed external ASPI interface
Used output format : User Defined Encoder
Selected bitrate : 1024 kBit/s
Quality : High
Add ID3 tag : No
Command line compressor : C:\Program Files\Exact Audio Copy\Flac\flac.exe
Additional command line options : -8 -V %s
TOC of the extracted CD
Track | Start | Length | Start sector | End sector
---------------------------------------------------------
1 | 0:00.27 | 15:22.73 | 27 | 69249
2 | 15:23.25 | 13:32.17 | 69250 | 130166
3 | 28:55.42 | 25:17.40 | 130167 | 243981
4 | 54:13.07 | 7:34.50 | 243982 | 278081
Range status and errors
Selected range
Filename J:\temp\nnm\CD08 Fela Kuti - Yellow Fever And Na Poi.wav
Peak level 97.9 %
Extraction speed 1.0 X
Range quality 99.9 %
Test CRC 3FCA765D
Copy CRC 3FCA765D
Copy OK
No errors occurred
AccurateRip summary
Track 1 cannot be verified as accurate (confidence 4) [EDE330DA], AccurateRip returned [423A0028]
Track 2 cannot be verified as accurate (confidence 4) [872F6D55], AccurateRip returned [EA2941A3]
Track 3 cannot be verified as accurate (confidence 4) [1FE1635F], AccurateRip returned [D9D14489]
Track 4 cannot be verified as accurate (confidence 4) [1A5219D5], AccurateRip returned [D3EDD60B]
No tracks could be verified as accurate
You may have a different pressing from the one(s) in the database
End of status report
 
CD09
Exact Audio Copy V1.0 beta 1 from 15. November 2010
EAC extraction logfile from 18. December 2010, 23:04
Fela Kuti / Alagbon Close / Why Black Man Dey Suffer (The Complete Works Of Fela Anikulapo Kuti CD9)
Used drive : ASUS CRW-4816A Adapter: 2 ID: 1
Read mode : Secure
Utilize accurate stream : Yes
Defeat audio cache : Yes
Make use of C2 pointers : No
Read offset correction : 12
Overread into Lead-In and Lead-Out : No
Fill up missing offset samples with silence : Yes
Delete leading and trailing silent blocks : No
Null samples used in CRC calculations : Yes
Used interface : Installed external ASPI interface
Used output format : User Defined Encoder
Selected bitrate : 1024 kBit/s
Quality : High
Add ID3 tag : No
Command line compressor : C:\Program Files\Exact Audio Copy\Flac\flac.exe
Additional command line options : -8 -V %s
TOC of the extracted CD
Track | Start | Length | Start sector | End sector
---------------------------------------------------------
1 | 0:00.00 | 17:03.02 | 0 | 76726
2 | 17:03.02 | 11:24.33 | 76727 | 128059
3 | 28:27.35 | 15:15.44 | 128060 | 196728
4 | 43:43.04 | 12:57.58 | 196729 | 255061
Range status and errors
Selected range
Filename J:\temp\nnm\CD09 Fela Kuti - Alagbon Close Why Black Man Dey Suffer.wav
Peak level 99.8 %
Extraction speed 2.0 X
Range quality 100.0 %
Test CRC CA10E135
Copy CRC CA10E135
Copy OK
No errors occurred
AccurateRip summary
Track 1 cannot be verified as accurate (confidence 4) [CA375753], AccurateRip returned [22F6126D]
Track 2 cannot be verified as accurate (confidence 4) [705E84BE], AccurateRip returned [269DAB28]
Track 3 cannot be verified as accurate (confidence 4) [EE0A105B], AccurateRip returned [35A1A64F]
Track 4 cannot be verified as accurate (confidence 4) [CB612616], AccurateRip returned [ED606B32]
No tracks could be verified as accurate
You may have a different pressing from the one(s) in the database
End of status report
 
CD10
Exact Audio Copy V1.0 beta 1 from 15. November 2010
EAC extraction logfile from 18. December 2010, 23:26
Fela Kuti / Monkey Banana / Excuse 0 (The Complete Works Of Fela Anikulapo Kuti CD10)
Used drive : ASUS CRW-4816A Adapter: 2 ID: 1
Read mode : Secure
Utilize accurate stream : Yes
Defeat audio cache : Yes
Make use of C2 pointers : No
Read offset correction : 12
Overread into Lead-In and Lead-Out : No
Fill up missing offset samples with silence : Yes
Delete leading and trailing silent blocks : No
Null samples used in CRC calculations : Yes
Used interface : Installed external ASPI interface
Used output format : User Defined Encoder
Selected bitrate : 1024 kBit/s
Quality : High
Add ID3 tag : No
Command line compressor : C:\Program Files\Exact Audio Copy\Flac\flac.exe
Additional command line options : -8 -V %s
TOC of the extracted CD
Track | Start | Length | Start sector | End sector
---------------------------------------------------------
1 | 0:00.00 | 11:36.45 | 0 | 52244
2 | 11:36.45 | 12:57.51 | 52245 | 110570
3 | 24:34.21 | 13:35.73 | 110571 | 171768
4 | 38:10.19 | 16:35.22 | 171769 | 246415
Range status and errors
Selected range
Filename J:\temp\nnm\CD10 Fela Kuti - Monkey Banana Excuse 0.wav
Peak level 100.0 %
Extraction speed 2.7 X
Range quality 100.0 %
Test CRC 09AD953D
Copy CRC 09AD953D
Copy OK
No errors occurred
AccurateRip summary
Track 1 cannot be verified as accurate (confidence 4) [E781A8F1], AccurateRip returned [C6AA8661]
Track 2 cannot be verified as accurate (confidence 3) [A2A147C0], AccurateRip returned [39B2F7D0]
Track 3 cannot be verified as accurate (confidence 3) [E715E9F7], AccurateRip returned [6319F937]
Track 4 cannot be verified as accurate (confidence 3) [B5C00601], AccurateRip returned [076E5981]
No tracks could be verified as accurate
You may have a different pressing from the one(s) in the database
End of status report
 
CD11
Exact Audio Copy V1.0 beta 1 from 15. November 2010
EAC extraction logfile from 19. December 2010, 0:00
Fela Kuti / Everything Scatter / Noise For Vendor Mouth (The Complete Works Of Fela Anikulapo Kuti CD11)
Used drive : ASUS CRW-4816A Adapter: 2 ID: 1
Read mode : Secure
Utilize accurate stream : Yes
Defeat audio cache : Yes
Make use of C2 pointers : No
Read offset correction : 12
Overread into Lead-In and Lead-Out : No
Fill up missing offset samples with silence : Yes
Delete leading and trailing silent blocks : No
Null samples used in CRC calculations : Yes
Used interface : Installed external ASPI interface
Used output format : User Defined Encoder
Selected bitrate : 1024 kBit/s
Quality : High
Add ID3 tag : No
Command line compressor : C:\Program Files\Exact Audio Copy\Flac\flac.exe
Additional command line options : -8 -V %s
TOC of the extracted CD
Track | Start | Length | Start sector | End sector
---------------------------------------------------------
1 | 0:00.00 | 10:34.26 | 0 | 47575
2 | 10:34.26 | 15:09.09 | 47576 | 115759
3 | 25:43.35 | 15:23.04 | 115760 | 184988
4 | 41:06.39 | 13:54.35 | 184989 | 247573
Range status and errors
Selected range
Filename J:\temp\nnm\CD11 Fela Kuti - Everything Scatter Noise For Vendor Mouth.wav
Peak level 100.0 %
Extraction speed 1.1 X
Range quality 100.0 %
Test CRC 1C936664
Copy CRC 1C936664
Copy OK
No errors occurred
AccurateRip summary
Track 1 not present in database
Track 2 not present in database
Track 3 not present in database
Track 4 not present in database
None of the tracks are present in the AccurateRip database
End of status report
 
CD12
Exact Audio Copy V1.0 beta 1 from 15. November 2010
EAC extraction logfile from 19. December 2010, 13:08
Fela Kuti / Teacher Don't Teach Me Nonsense (The Complete Works Of Fela Anikulapo Kuti CD12)
Used drive : ASUS CRW-4816A Adapter: 2 ID: 1
Read mode : Secure
Utilize accurate stream : Yes
Defeat audio cache : Yes
Make use of C2 pointers : No
Read offset correction : 12
Overread into Lead-In and Lead-Out : No
Fill up missing offset samples with silence : Yes
Delete leading and trailing silent blocks : No
Null samples used in CRC calculations : Yes
Used interface : Installed external ASPI interface
Used output format : User Defined Encoder
Selected bitrate : 1024 kBit/s
Quality : High
Add ID3 tag : No
Command line compressor : C:\Program Files\Exact Audio Copy\Flac\flac.exe
Additional command line options : -8 -V %s
TOC of the extracted CD
Track | Start | Length | Start sector | End sector
---------------------------------------------------------
1 | 0:00.00 | 25:48.56 | 0 | 116155
2 | 25:48.56 | 30:49.36 | 116156 | 254866
3 | 56:38.17 | 22:17.12 | 254867 | 355153
Range status and errors
Selected range
Filename J:\temp\nnm\CD12 Fela Kuti - Teacher Dont Teach Me Nonsense.wav
Peak level 98.8 %
Extraction speed 1.5 X
Range quality 100.0 %
Test CRC 53502A02
Copy CRC 53502A02
Copy OK
No errors occurred
AccurateRip summary
Track 1 cannot be verified as accurate (confidence 2) [A189BB6E], AccurateRip returned [3F134186]
Track 2 cannot be verified as accurate (confidence 2) [6DA899B0], AccurateRip returned [81B0F240]
Track 3 cannot be verified as accurate (confidence 2) [9E3008D7], AccurateRip returned [BF179DB7]
No tracks could be verified as accurate
You may have a different pressing from the one(s) in the database
End of status report
 
CD13
Exact Audio Copy V1.0 beta 1 from 15. November 2010
EAC extraction logfile from 19. December 2010, 13:45
Fela Kuti / Koola Lobitos / The '69 L.A. Sessions (The Complete Works Of Fela Anikulapo Kuti CD13)
Used drive : ASUS CRW-4816A Adapter: 2 ID: 1
Read mode : Secure
Utilize accurate stream : Yes
Defeat audio cache : Yes
Make use of C2 pointers : No
Read offset correction : 12
Overread into Lead-In and Lead-Out : No
Fill up missing offset samples with silence : Yes
Delete leading and trailing silent blocks : No
Null samples used in CRC calculations : Yes
Used interface : Installed external ASPI interface
Used output format : User Defined Encoder
Selected bitrate : 1024 kBit/s
Quality : High
Add ID3 tag : No
Command line compressor : C:\Program Files\Exact Audio Copy\Flac\flac.exe
Additional command line options : -8 -V %s
TOC of the extracted CD
Track | Start | Length | Start sector | End sector
---------------------------------------------------------
1 | 0:00.00 | 5:23.55 | 0 | 24279
2 | 5:23.55 | 3:51.63 | 24280 | 41667
3 | 9:15.43 | 5:18.42 | 41668 | 65559
4 | 14:34.10 | 4:07.74 | 65560 | 84158
5 | 18:42.09 | 4:14.06 | 84159 | 103214
6 | 22:56.15 | 4:43.45 | 103215 | 124484
7 | 27:39.60 | 7:01.52 | 124485 | 156111
8 | 34:41.37 | 3:47.26 | 156112 | 173162
9 | 38:28.63 | 3:13.21 | 173163 | 187658
10 | 41:42.09 | 2:43.17 | 187659 | 199900
11 | 44:25.26 | 5:27.26 | 199901 | 224451
12 | 49:52.52 | 3:29.30 | 224452 | 240156
13 | 53:22.07 | 6:11.03 | 240157 | 267984
14 | 59:33.10 | 4:44.14 | 267985 | 289298
15 | 64:17.24 | 4:15.07 | 289299 | 308430
16 | 68:32.31 | 4:23.26 | 308431 | 328181
Range status and errors
Selected range
Filename J:\temp\nnm\CD13 Fela Kuti - Koola Lobitos The 69 LA Sessions.wav
Peak level 100.0 %
Extraction speed 0.3 X
Range quality 100.0 %
Test CRC DF581AD2
Copy CRC DF581AD2
Copy OK
No errors occurred
AccurateRip summary
Track 1 not present in database
Track 2 not present in database
Track 3 not present in database
Track 4 not present in database
Track 5 not present in database
Track 6 not present in database
Track 7 not present in database
Track 8 not present in database
Track 9 not present in database
Track 10 not present in database
Track 11 not present in database
Track 12 not present in database
Track 13 not present in database
Track 14 not present in database
Track 15 not present in database
Track 16 not present in database
None of the tracks are present in the AccurateRip database
End of status report
 
CD14
Exact Audio Copy V1.0 beta 1 from 15. November 2010
EAC extraction logfile from 19. December 2010, 14:10
Fela Kuti / Roforofo Fight / The Fela Singles (The Complete Works Of Fela Anikulapo Kuti CD14)
Used drive : ASUS CRW-4816A Adapter: 2 ID: 1
Read mode : Secure
Utilize accurate stream : Yes
Defeat audio cache : Yes
Make use of C2 pointers : No
Read offset correction : 12
Overread into Lead-In and Lead-Out : No
Fill up missing offset samples with silence : Yes
Delete leading and trailing silent blocks : No
Null samples used in CRC calculations : Yes
Used interface : Installed external ASPI interface
Used output format : User Defined Encoder
Selected bitrate : 1024 kBit/s
Quality : High
Add ID3 tag : No
Command line compressor : C:\Program Files\Exact Audio Copy\Flac\flac.exe
Additional command line options : -8 -V %s
TOC of the extracted CD
Track | Start | Length | Start sector | End sector
---------------------------------------------------------
1 | 0:00.00 | 15:41.66 | 0 | 70640
2 | 15:41.66 | 17:24.57 | 70641 | 148997
3 | 33:06.48 | 13:40.50 | 148998 | 210547
4 | 46:47.23 | 12:05.70 | 210548 | 264992
5 | 58:53.18 | 9:09.58 | 264993 | 306225
6 | 68:03.01 | 10:18.10 | 306226 | 352585
Range status and errors
Selected range
Filename J:\temp\nnm\CD14 Fela Kuti - Roforofo Fight The Fela Singles.wav
Peak level 100.0 %
Extraction speed 1.3 X
Range quality 100.0 %
Test CRC 0A39A052
Copy CRC 0A39A052
Copy OK
No errors occurred
AccurateRip summary
Track 1 cannot be verified as accurate (confidence 2) [E4110956], AccurateRip returned [0201A198]
Track 2 cannot be verified as accurate (confidence 3) [4E134572], AccurateRip returned [F6300CD2]
Track 3 cannot be verified as accurate (confidence 2) [14986858], AccurateRip returned [5162ECB2]
Track 4 cannot be verified as accurate (confidence 3) [A5E88FC5], AccurateRip returned [27512905]
Track 5 cannot be verified as accurate (confidence 3) [0C18BE9B], AccurateRip returned [E9C92BDB]
Track 6 cannot be verified as accurate (confidence 3) [39AFE6D8], AccurateRip returned [E24EB398]
No tracks could be verified as accurate
You may have a different pressing from the one(s) in the database
End of status report
 
CD15
Exact Audio Copy V1.0 beta 1 from 15. November 2010
EAC extraction logfile from 19. December 2010, 14:41
Fela Kuti / Confusion / Gentleman (The Complete Works Of Fela Anikulapo Kuti CD15)
Used drive : ASUS CRW-4816A Adapter: 2 ID: 1
Read mode : Secure
Utilize accurate stream : Yes
Defeat audio cache : Yes
Make use of C2 pointers : No
Read offset correction : 12
Overread into Lead-In and Lead-Out : No
Fill up missing offset samples with silence : Yes
Delete leading and trailing silent blocks : No
Null samples used in CRC calculations : Yes
Used interface : Installed external ASPI interface
Used output format : User Defined Encoder
Selected bitrate : 1024 kBit/s
Quality : High
Add ID3 tag : No
Command line compressor : C:\Program Files\Exact Audio Copy\Flac\flac.exe
Additional command line options : -8 -V %s
TOC of the extracted CD
Track | Start | Length | Start sector | End sector
---------------------------------------------------------
1 | 0:00.00 | 25:37.07 | 0 | 115281
2 | 25:37.07 | 14:41.25 | 115282 | 181381
3 | 40:18.32 | 8:12.13 | 181382 | 218294
4 | 48:30.45 | 8:08.00 | 218295 | 254894
Range status and errors
Selected range
Filename J:\temp\nnm\CD15 Fela Kuti - Confusion Gentleman.wav
Peak level 100.0 %
Extraction speed 0.6 X
Range quality 100.0 %
Test CRC F8400D15
Copy CRC F8400D15
Copy OK
No errors occurred
AccurateRip summary
Track 1 cannot be verified as accurate (confidence 6) [7CD58B2D], AccurateRip returned [67F1C039]
Track 2 cannot be verified as accurate (confidence 6) [1A6F2C17], AccurateRip returned [B072919B]
Track 3 cannot be verified as accurate (confidence 6) [0853E290], AccurateRip returned [40A9FE2C]
Track 4 cannot be verified as accurate (confidence 6) [12F2C7EF], AccurateRip returned [C75C504B]
No tracks could be verified as accurate
You may have a different pressing from the one(s) in the database
End of status report
 
CD16
Exact Audio Copy V1.0 beta 1 from 15. November 2010
EAC extraction logfile from 19. December 2010, 15:02
Fela Kuti / Shakara / London Scene (The Complete Works Of Fela Anikulapo Kuti CD16)
Used drive : ASUS CRW-4816A Adapter: 2 ID: 1
Read mode : Secure
Utilize accurate stream : Yes
Defeat audio cache : Yes
Make use of C2 pointers : No
Read offset correction : 12
Overread into Lead-In and Lead-Out : No
Fill up missing offset samples with silence : Yes
Delete leading and trailing silent blocks : No
Null samples used in CRC calculations : Yes
Used interface : Installed external ASPI interface
Used output format : User Defined Encoder
Selected bitrate : 1024 kBit/s
Quality : High
Add ID3 tag : No
Command line compressor : C:\Program Files\Exact Audio Copy\Flac\flac.exe
Additional command line options : -8 -V %s
TOC of the extracted CD
Track | Start | Length | Start sector | End sector
---------------------------------------------------------
1 | 0:00.27 | 13:49.30 | 27 | 62231
2 | 13:49.57 | 13:25.53 | 62232 | 122659
3 | 27:15.35 | 7:26.67 | 122660 | 156176
4 | 34:42.27 | 13:15.15 | 156177 | 215816
5 | 47:57.42 | 9:30.18 | 215817 | 258584
6 | 57:27.60 | 5:50.35 | 258585 | 284869
7 | 63:18.20 | 7:25.16 | 284870 | 318260
Range status and errors
Selected range
Filename J:\temp\nnm\CD16 Fela Kuti - Shakara London Scene.wav
Peak level 100.0 %
Extraction speed 1.0 X
Range quality 100.0 %
Test CRC EA4E221E
Copy CRC EA4E221E
Copy OK
No errors occurred
AccurateRip summary
Track 1 cannot be verified as accurate (confidence 5) [0F77B98F], AccurateRip returned [436DB5E7]
Track 2 cannot be verified as accurate (confidence 5) [1E13105F], AccurateRip returned [5205D9FB]
Track 3 cannot be verified as accurate (confidence 4) [FF209A5A], AccurateRip returned [90AADB28]
Track 4 cannot be verified as accurate (confidence 5) [6D64B75C], AccurateRip returned [00A033A8]
Track 5 cannot be verified as accurate (confidence 5) [E114B61E], AccurateRip returned [50C3386E]
Track 6 cannot be verified as accurate (confidence 4) [EE63A525], AccurateRip returned [F2903BA1]
Track 7 cannot be verified as accurate (confidence 5) [54F3EA9B], AccurateRip returned [BC0EDE63]
No tracks could be verified as accurate
You may have a different pressing from the one(s) in the database
End of status report
 
CD17
Exact Audio Copy V1.0 beta 1 from 15. November 2010
EAC extraction logfile from 19. December 2010, 15:22
Fela Kuti / Expensive Shit / He Miss Road (The Complete Works Of Fela Anikulapo Kuti CD17)
Used drive : ASUS CRW-4816A Adapter: 2 ID: 1
Read mode : Secure
Utilize accurate stream : Yes
Defeat audio cache : Yes
Make use of C2 pointers : No
Read offset correction : 12
Overread into Lead-In and Lead-Out : No
Fill up missing offset samples with silence : Yes
Delete leading and trailing silent blocks : No
Null samples used in CRC calculations : Yes
Used interface : Installed external ASPI interface
Used output format : User Defined Encoder
Selected bitrate : 1024 kBit/s
Quality : High
Add ID3 tag : No
Command line compressor : C:\Program Files\Exact Audio Copy\Flac\flac.exe
Additional command line options : -8 -V %s
TOC of the extracted CD
Track | Start | Length | Start sector | End sector
---------------------------------------------------------
1 | 0:00.27 | 13:14.05 | 27 | 59581
2 | 13:14.32 | 11:00.38 | 59582 | 109119
3 | 24:14.70 | 10:47.30 | 109120 | 157674
4 | 35:02.25 | 11:15.55 | 157675 | 208354
5 | 46:18.05 | 17:37.00 | 208355 | 287629
Range status and errors
Selected range
Filename J:\temp\nnm\CD17 Fela Kuti - Expensive Shit He Miss Road.wav
Peak level 99.2 %
Extraction speed 2.5 X
Range quality 100.0 %
Test CRC 7BC1573D
Copy CRC 7BC1573D
Copy OK
No errors occurred
AccurateRip summary
Track 1 cannot be verified as accurate (confidence 8) [21AF097C], AccurateRip returned [F85D3586]
Track 2 cannot be verified as accurate (confidence 8) [08C2BA23], AccurateRip returned [C6ED0A65]
Track 3 cannot be verified as accurate (confidence 8) [918C2A87], AccurateRip returned [943F45FD]
Track 4 cannot be verified as accurate (confidence 8) [C1898F54], AccurateRip returned [A92D51BA]
Track 5 cannot be verified as accurate (confidence 8) [CE37BFA5], AccurateRip returned [725E2B35]
No tracks could be verified as accurate
You may have a different pressing from the one(s) in the database
End of status report
 
CD18
Exact Audio Copy V1.0 beta 1 from 15. November 2010
EAC extraction logfile from 19. December 2010, 15:42
Fela Kuti / Stalemate / Fear Not For Man (The Complete Works Of Fela Anikulapo Kuti CD18)
Used drive : ASUS CRW-4816A Adapter: 2 ID: 1
Read mode : Secure
Utilize accurate stream : Yes
Defeat audio cache : Yes
Make use of C2 pointers : No
Read offset correction : 12
Overread into Lead-In and Lead-Out : No
Fill up missing offset samples with silence : Yes
Delete leading and trailing silent blocks : No
Null samples used in CRC calculations : Yes
Used interface : Installed external ASPI interface
Used output format : User Defined Encoder
Selected bitrate : 1024 kBit/s
Quality : High
Add ID3 tag : No
Command line compressor : C:\Program Files\Exact Audio Copy\Flac\flac.exe
Additional command line options : -8 -V %s
TOC of the extracted CD
Track | Start | Length | Start sector | End sector
---------------------------------------------------------
1 | 0:00.27 | 12:55.55 | 27 | 58206
2 | 12:56.07 | 15:44.15 | 58207 | 129021
3 | 28:40.22 | 14:14.25 | 129022 | 193096
4 | 42:54.47 | 15:17.40 | 193097 | 261911
Range status and errors
Selected range
Filename J:\temp\nnm\CD18 Fela Kuti - Stalemate Fear Not For Man.wav
Peak level 99.2 %
Extraction speed 2.2 X
Range quality 100.0 %
Test CRC F9824DC8
Copy CRC F9824DC8
Copy OK
No errors occurred
AccurateRip summary
Track 1 cannot be verified as accurate (confidence 2) [CA96F360], AccurateRip returned [A61EC8F8]
Track 2 cannot be verified as accurate (confidence 2) [3E150E7D], AccurateRip returned [B663D0C5]
Track 3 cannot be verified as accurate (confidence 2) [696ED9B9], AccurateRip returned [9F758D95]
Track 4 cannot be verified as accurate (confidence 2) [3569D935], AccurateRip returned [7ABE62EB]
No tracks could be verified as accurate
You may have a different pressing from the one(s) in the database
End of status report
 
CD19
Exact Audio Copy V1.0 beta 1 from 15. November 2010
EAC extraction logfile from 19. December 2010, 16:05
Fela Kuti / Ikoyi Blindness / Kalakuta Show (The Complete Works Of Fela Anikulapo Kuti CD19)
Used drive : ASUS CRW-4816A Adapter: 2 ID: 1
Read mode : Secure
Utilize accurate stream : Yes
Defeat audio cache : Yes
Make use of C2 pointers : No
Read offset correction : 12
Overread into Lead-In and Lead-Out : No
Fill up missing offset samples with silence : Yes
Delete leading and trailing silent blocks : No
Null samples used in CRC calculations : Yes
Used interface : Installed external ASPI interface
Used output format : User Defined Encoder
Selected bitrate : 1024 kBit/s
Quality : High
Add ID3 tag : No
Command line compressor : C:\Program Files\Exact Audio Copy\Flac\flac.exe
Additional command line options : -8 -V %s
TOC of the extracted CD
Track | Start | Length | Start sector | End sector
---------------------------------------------------------
1 | 0:00.00 | 15:08.04 | 0 | 68103
2 | 15:08.04 | 14:13.68 | 68104 | 132146
3 | 29:21.72 | 14:31.48 | 132147 | 197519
4 | 43:53.45 | 16:04.30 | 197520 | 269849
Range status and errors
Selected range
Filename J:\temp\nnm\CD19 Fela Kuti - Ikoyi Blindness Kalakuta Show.wav
Peak level 100.0 %
Extraction speed 2.2 X
Range quality 100.0 %
Test CRC E934B82D
Copy CRC E934B82D
Copy OK
No errors occurred
AccurateRip summary
Track 1 not present in database
Track 2 not present in database
Track 3 not present in database
Track 4 not present in database
None of the tracks are present in the AccurateRip database
End of status report
 
CD20
Exact Audio Copy V1.0 beta 1 from 15. November 2010
EAC extraction logfile from 19. December 2010, 16:25
Fela Kuti / Upside Down / Music Of Many Colours (The Complete Works Of Fela Anikulapo Kuti CD20)
Used drive : ASUS CRW-4816A Adapter: 2 ID: 1
Read mode : Secure
Utilize accurate stream : Yes
Defeat audio cache : Yes
Make use of C2 pointers : No
Read offset correction : 12
Overread into Lead-In and Lead-Out : No
Fill up missing offset samples with silence : Yes
Delete leading and trailing silent blocks : No
Null samples used in CRC calculations : Yes
Used interface : Installed external ASPI interface
Used output format : User Defined Encoder
Selected bitrate : 1024 kBit/s
Quality : High
Add ID3 tag : No
Command line compressor : C:\Program Files\Exact Audio Copy\Flac\flac.exe
Additional command line options : -8 -V %s
TOC of the extracted CD
Track | Start | Length | Start sector | End sector
---------------------------------------------------------
1 | 0:00.00 | 14:44.49 | 0 | 66348
2 | 14:44.49 | 14:36.54 | 66349 | 132102
3 | 29:21.28 | 18:38.71 | 132103 | 216023
4 | 48:00.24 | 17:31.30 | 216024 | 294878
Range status and errors
Selected range
Filename J:\temp\nnm\CD20 Fela Kuti - Upside Down Music Of Many Colours.wav
Peak level 100.0 %
Extraction speed 2.4 X
Range quality 100.0 %
Test CRC 3A5752CC
Copy CRC 3A5752CC
Copy OK
No errors occurred
AccurateRip summary
Track 1 cannot be verified as accurate (confidence 5) [A0231A88], AccurateRip returned [066249B0]
Track 2 cannot be verified as accurate (confidence 5) [517E685B], AccurateRip returned [21F2C17B]
Track 3 cannot be verified as accurate (confidence 4) [D8CDB45C], AccurateRip returned [9B16DA66]
Track 4 cannot be verified as accurate (confidence 4) [0C687FB9], AccurateRip returned [48271ADF]
No tracks could be verified as accurate
You may have a different pressing from the one(s) in the database
End of status report
 
CD21
Exact Audio Copy V1.0 beta 1 from 15. November 2010
EAC extraction logfile from 19. December 2010, 16:45
Fela Kuti / Beasts Of No Nation / ODOO (The Complete Works Of Fela Anikulapo Kuti CD21)
Used drive : ASUS CRW-4816A Adapter: 2 ID: 1
Read mode : Secure
Utilize accurate stream : Yes
Defeat audio cache : Yes
Make use of C2 pointers : No
Read offset correction : 12
Overread into Lead-In and Lead-Out : No
Fill up missing offset samples with silence : Yes
Delete leading and trailing silent blocks : No
Null samples used in CRC calculations : Yes
Used interface : Installed external ASPI interface
Used output format : User Defined Encoder
Selected bitrate : 1024 kBit/s
Quality : High
Add ID3 tag : No
Command line compressor : C:\Program Files\Exact Audio Copy\Flac\flac.exe
Additional command line options : -8 -V %s
TOC of the extracted CD
Track | Start | Length | Start sector | End sector
---------------------------------------------------------
1 | 0:00.00 | 28:20.51 | 0 | 127550
2 | 28:20.51 | 31:54.18 | 127551 | 271118
Range status and errors
Selected range
Filename J:\temp\nnm\CD21 Fela Kuti - Beasts Of No Nation ODOO.wav
Peak level 100.0 %
Extraction speed 4.8 X
Range quality 100.0 %
Test CRC 092A78D6
Copy CRC 092A78D6
Copy OK
No errors occurred
AccurateRip summary
Track 1 not present in database
Track 2 not present in database
None of the tracks are present in the AccurateRip database
End of status report
 
CD22
Exact Audio Copy V1.0 beta 1 from 15. November 2010
EAC extraction logfile from 19. December 2010, 17:08
Fela Kuti / Army Arrangement (The Complete Works Of Fela Anikulapo Kuti CD22)
Used drive : ASUS CRW-4816A Adapter: 2 ID: 1
Read mode : Secure
Utilize accurate stream : Yes
Defeat audio cache : Yes
Make use of C2 pointers : No
Read offset correction : 12
Overread into Lead-In and Lead-Out : No
Fill up missing offset samples with silence : Yes
Delete leading and trailing silent blocks : No
Null samples used in CRC calculations : Yes
Used interface : Installed external ASPI interface
Used output format : User Defined Encoder
Selected bitrate : 1024 kBit/s
19:48
306
Нет комментариев. Ваш будет первым!