Поиск

(Bossa Nova / Samba) Rosa Passos — Rosa - 2006, FLAC (image+.cue), lossless

(Bossa Nova / Samba) Rosa Passos — Rosa - 2006, FLAC (image+.cue), lossless
Треклист:
Rosa Passos — Rosa
Жанр: Bossa Nova / Samba
Год выпуска диска: 2006
Производитель диска: USA (Telarc)
Аудио кодек: FLAC
Тип рипа: image+.cue
Битрейт аудио: lossless
Продолжительность: 61:52
Трэклист:
01. Duas Contas 01:11
02. Eu Nao Existo Sem Voce 02:32
03. Sutilezas 04:59
04. Ate Quem Sabe 04:32
05. Olhos Nos Olhos 04:18
06. Sentado A Beira Do Caminho 07:07
07. Molambo 03:27
08. Jardim 04:58
09. Demasiado Blue 03:43
10. Desilusion 03:58
11. Edredon De Seda 04:00
12. Nao Sei O Que Acontece 04:05
13. Detalhe 05:38
14. Fusion 05:08
15. Inverno 02:06
 
Отчёт ЕАС
Exact Audio Copy V0.99 prebeta 4 from 23. January 2008
Отчёт EAC об извлечении, выполненном 1. мая 2009, 0:17
Rosa Passos / Rosa
Дисковод: Optiarc DVD RW AD-7203S Adapter: 1 ID: 1
Режим чтения : Достоверность
Использование точного потока : Да
Отключение кэша аудио : Да
Использование указателей C2 : Нет
Коррекция смещения при чтении : 48
Способность читать области Lead-in и Lead-out : Нет
Заполнение пропущенных сэмплов тишиной : Да
Удаление блоков с тишиной в начале и конце : Нет
При вычислениях CRC использовались нулевые сэмплы : Да
Интерфейс : Встроенный Win32-интерфейс для Win NT/2000
Выходной формат : Пользовательский кодировщик
Выбранный битрейт : 1024 kBit/s
Качество : Высокий
Добавление ID3-тэга : Нет
Утилита сжатия : C:\Program Files\Exact Audio Copy\Flac\flac.exe
Дополнительные параметры : -V -8 -T "artist=%a" -T "title=%t" -T "album=%g" -T "date=%y" -T "tracknumber=%n" -T "genre=%m" %s
TOC извлечённого CD
Трек | Старт | Длительность | Начальный сектор | Конечный сектор
---------------------------------------------------------------------
1 | 0:00.00 | 1:11.71 | 0 | 5395
2 | 1:11.71 | 2:32.42 | 5396 | 16837
3 | 3:44.38 | 4:59.29 | 16838 | 39291
4 | 8:43.67 | 4:32.44 | 39292 | 59735
5 | 13:16.36 | 4:18.58 | 59736 | 79143
6 | 17:35.19 | 7:07.60 | 79144 | 111228
7 | 24:43.04 | 3:27.18 | 111229 | 126771
8 | 28:10.22 | 4:58.61 | 126772 | 149182
9 | 33:09.08 | 3:43.16 | 149183 | 165923
10 | 36:52.24 | 3:58.68 | 165924 | 183841
11 | 40:51.17 | 4:00.28 | 183842 | 201869
12 | 44:51.45 | 4:05.69 | 201870 | 220313
13 | 48:57.39 | 5:38.16 | 220314 | 245679
14 | 54:35.55 | 5:08.31 | 245680 | 268810
15 | 59:44.11 | 2:06.69 | 268811 | 278329
Характеристики диапазона извлечения и сообщения об ошибках
Выбранный диапазон
Имя файла D:\EAC-FOLDER\Rosa Passos - Rosa\Rosa Passos - Rosa\Rosa Passos - Rosa.wav
Пиковый уровень 98.9 %
Качество диапазона 100.0 %
CRC теста 07FCAAE2
CRC копии 07FCAAE2
Копирование... OK
Ошибок не произошло
AccurateRip: сводка
Трек 1 точное извлечение (доверие 7) [ECC9C676]
Трек 2 точное извлечение (доверие 7) [AD14658B]
Трек 3 точное извлечение (доверие 7) [F682EFBA]
Трек 4 точное извлечение (доверие 7) [98AF5338]
Трек 5 точное извлечение (доверие 7) [91E96399]
Трек 6 точное извлечение (доверие 7) [57061ED4]
Трек 7 точное извлечение (доверие 7) [5B48CAE7]
Трек 8 точное извлечение (доверие 7) [7E9374FE]
Трек 9 точное извлечение (доверие 7) [51E3E115]
Трек 10 точное извлечение (доверие 7) [55E64CE3]
Трек 11 точное извлечение (доверие 7) [9CC69131]
Трек 12 точное извлечение (доверие 7) [BABECDC0]
Трек 13 точное извлечение (доверие 7) [C726464E]
Трек 14 точное извлечение (доверие 7) [2F21B67E]
Трек 15 точное извлечение (доверие 6) [0A4A7F22]
Все треки извлечены точно
Конец отчёта
Доп. информация: Босса нова как она есть.
Великая певица записала очень камерный, лиричный альбом.
Только двое: её голос и её гитара.
PS Собственноручный рип с родного диска.
 
сертификатъ
Сканы буклета и инлэя — внутри раздачи
07:01
580
Нет комментариев. Ваш будет первым!