Поиск

(Latin Jazz, Tango) Astor Piazzolla [2 CD] - Musiques de films (1986) / Libertango (1993) - APE (image+.cue), lossless

Треклист:
Astor Piazzolla - Musiques de films
Жанр: Latin Jazz, Tango
Год выпуска диска: 1986
Аудио кодек: APE
Тип рипа: image+.cue
Битрейт аудио: lossless
Продолжительность: 69:41
Трэклист:
1 Tango-Tango
2 Hijos del Exilio
3 Solo
4 Los Tangos del Exilio
5 Vais del Regreso
6 Duo de Amor
7 Ausencias
8 Tanguedia 1
9 Tanguedia 3
10 Tanguedia 2
11 Oblivion (bandoneon soliste)
12 Remembrance
13 Cavalcata
14 Oblivion (Trombone soliste)
15 Oblivion (hautbois et orchestre)
16 Enrico IV
17 Tanti Anni Prima
18 Oblivion (guitare soliste)
Музыканты:
Astor Piazzolla, bandoneon
Fernando Suares Paz, violin
Oscar Lopez Ruiz, guitar
Pablo Ziegler, piano
Hector Consoli, bass
 
Отчёт EAC
Exact Audio Copy V0.99 prebeta 4 from 23. January 2008
Отчёт EAC об извлечении, выполненном 30. апреля 2009, 22:21
Astor Piazzolla / Musiques de films
Дисковод: Optiarc DVD RW AD-7200A Adapter: 3 ID: 1
Режим чтения : Достоверность
Использование точного потока : Да
Отключение кэша аудио : Да
Использование указателей C2 : Нет
Коррекция смещения при чтении : 48
Способность читать области Lead-in и Lead-out : Нет
Заполнение пропущенных сэмплов тишиной : Да
Удаление блоков с тишиной в начале и конце : Нет
При вычислениях CRC использовались нулевые сэмплы : Да
Интерфейс : Установленный внешний ASPI-интерфейс
Выходной формат : Внутренние WAV-операции
Формат сэмплов : 44.100 Гц; 16 бит; стерео
TOC извлечённого CD
Трек | Старт | Длительность | Начальный сектор | Конечный сектор
---------------------------------------------------------------------
1 | 0:00.00 | 4:25.20 | 0 | 19894
2 | 4:25.20 | 2:56.53 | 19895 | 33147
3 | 7:21.73 | 3:38.12 | 33148 | 49509
4 | 11:00.10 | 3:22.53 | 49510 | 64712
5 | 14:22.63 | 4:24.02 | 64713 | 84514
6 | 18:46.65 | 5:03.43 | 84515 | 107282
7 | 23:50.33 | 3:35.45 | 107283 | 123452
8 | 27:26.03 | 2:56.30 | 123453 | 136682
9 | 30:22.33 | 3:51.72 | 136683 | 154079
10 | 34:14.30 | 3:45.40 | 154080 | 170994
11 | 37:59.70 | 3:39.60 | 170995 | 187479
12 | 41:39.55 | 4:48.65 | 187480 | 209144
13 | 46:28.45 | 4:01.60 | 209145 | 227279
14 | 50:30.30 | 3:40.73 | 227280 | 243852
15 | 54:11.28 | 3:36.25 | 243853 | 260077
16 | 57:47.53 | 2:43.00 | 260078 | 272302
17 | 60:30.53 | 5:40.30 | 272303 | 297832
18 | 66:11.08 | 3:30.50 | 297833 | 313632
Характеристики диапазона извлечения и сообщения об ошибках
Выбранный диапазон
Имя файла E:\Up-Down\Astor Piazzolla - Musiques de films\Astor Piazzolla - Musiques de films.wav
Пиковый уровень 83.1 %
Качество диапазона 100.0 %
CRC копии 5A0013D0
Копирование... OK
Ошибок не произошло
Конец отчёта
Astor Piazzolla - Libertango
Жанр: Latin Jazz, Tango
Год выпуска диска: 1993
Аудио кодек: APE
Тип рипа: image+.cue
Битрейт аудио: lossless
Продолжительность: 53:46
Трэклист:
1 Adios Nonino
2 Mumuki
3 Verano Porteno
4 Chin Chin
5 Libertango
6 Suite Punta Del Este
Музыканты:
Astor Piazzolla, bandoneon
Fernando Suares Paz, violin
Oscar Lopez Ruiz, guitar
Pablo Ziegler, piano
Hector Consoli, bass
Aldemaro Romero Orchestra (6)
 
Отчёт EAC
Exact Audio Copy V0.99 prebeta 4 from 23. January 2008
Отчёт EAC об извлечении, выполненном 30. апреля 2009, 21:56
Astor Piazzolla / Libertango
Дисковод: Optiarc DVD RW AD-7200A Adapter: 3 ID: 1
Режим чтения : Достоверность
Использование точного потока : Да
Отключение кэша аудио : Да
Использование указателей C2 : Нет
Коррекция смещения при чтении : 48
Способность читать области Lead-in и Lead-out : Нет
Заполнение пропущенных сэмплов тишиной : Да
Удаление блоков с тишиной в начале и конце : Нет
При вычислениях CRC использовались нулевые сэмплы : Да
Интерфейс : Установленный внешний ASPI-интерфейс
Выходной формат : Внутренние WAV-операции
Формат сэмплов : 44.100 Гц; 16 бит; стерео
TOC извлечённого CD
Трек | Старт | Длительность | Начальный сектор | Конечный сектор
---------------------------------------------------------------------
1 | 0:00.00 | 8:16.55 | 0 | 37254
2 | 8:16.55 | 9:43.15 | 37255 | 80994
3 | 17:59.70 | 6:30.05 | 80995 | 110249
4 | 24:30.00 | 6:26.22 | 110250 | 139221
5 | 30:56.22 | 4:12.33 | 139222 | 158154
6 | 35:08.55 | 18:38.00 | 158155 | 242004
Характеристики диапазона извлечения и сообщения об ошибках
Выбранный диапазон
Имя файла E:\Up-Down\Astor Piazzolla - Libertango\Astor Piazzolla - Libertango.wav
Пиковый уровень 85.0 %
Качество диапазона 100.0 %
CRC копии 5F36894B
Копирование... OK
Ошибок не произошло
Конец отчёта
Download available for power users only.
06:01
192
Нет комментариев. Ваш будет первым!