Поиск

(Bossa Nova / Brazilian Jazz) VA — Wave: the Antonio Carlos Jobim Songbook - 1996, FLAC (image+.cue), lossless

(Bossa Nova / Brazilian Jazz) VA — Wave: the Antonio Carlos Jobim Songbook - 1996, FLAC (image+.cue), lossless
Треклист:
Various Artists — Wave: the Antonio Carlos Jobim Songbook
Жанр: Bossa Nova / Brazilian Jazz
Год выпуска диска: 1996
Производитель диска: USA (Verve)
Аудио кодек: FLAC
Тип рипа: image+.cue
Битрейт аудио: lossless
Продолжительность: 63:31
Трэклист:
01. Antonio Carlos Jobim / Wave 02:51
02. Ella Fitzgerald / So Danço Samba 05:50
03. Joe Henderson & Herbie Hancock / Happy Madness 03:14
04. Antonio Carlos Jobim & Elis Regina / Chovendo Na Roseira (Double Rainbow) 03:12
05. Stan Getz & Charlie Byrd / Desafinado (Off Key) 05:53
06. Astrud Gilberto / A Felicidade 02:48
07. Stan Getz & Chick Corea / O Grande Amor 04:46
08. Antonio Carlos Jobim & Pat Metheny / Insensatez (How Insensitive) 04:03
09. Wes Montgomery / Amor Em Paz (Once I Loved) 04:48
10. Stan Getz & João Gilberto / Corcovado (Quiet Nights Of Quiet Stars) 04:16
11. Oscar Peterson / Triste 05:20
12. Sarah Vaughan / The Boy From Ipanema 02:31
13. Dizzy Gillespie / Samba De Uma Nota So (One Note Samba) 05:18
14. Joe Henderson / Vivo Sonhando (Dreamer) 05:26
15. Toots Thielemans & Elis Regina / Wave 03:08
 
Отчёт ЕАС
Exact Audio Copy V0.99 prebeta 4 from 23. January 2008
Отчёт EAC об извлечении, выполненном 1. мая 2009, 22:26
Various / Wave: the Antonio Carlos Jobim Songbook
Дисковод: Optiarc DVD RW AD-7203S Adapter: 1 ID: 1
Режим чтения : Достоверность
Использование точного потока : Да
Отключение кэша аудио : Да
Использование указателей C2 : Нет
Коррекция смещения при чтении : 48
Способность читать области Lead-in и Lead-out : Нет
Заполнение пропущенных сэмплов тишиной : Да
Удаление блоков с тишиной в начале и конце : Нет
При вычислениях CRC использовались нулевые сэмплы : Да
Интерфейс : Встроенный Win32-интерфейс для Win NT/2000
Выходной формат : Пользовательский кодировщик
Выбранный битрейт : 1024 kBit/s
Качество : Высокий
Добавление ID3-тэга : Нет
Утилита сжатия : C:\Program Files\Exact Audio Copy\Flac\flac.exe
Дополнительные параметры : -V -8 -T "artist=%a" -T "title=%t" -T "album=%g" -T "date=%y" -T "tracknumber=%n" -T "genre=%m" %s
TOC извлечённого CD
Трек | Старт | Длительность | Начальный сектор | Конечный сектор
---------------------------------------------------------------------
1 | 0:00.00 | 2:51.72 | 0 | 12896
2 | 2:51.72 | 5:50.25 | 12897 | 39171
3 | 8:42.22 | 3:14.53 | 39172 | 53774
4 | 11:57.00 | 3:12.50 | 53775 | 68224
5 | 15:09.50 | 5:53.45 | 68225 | 94744
6 | 21:03.20 | 2:48.67 | 94745 | 107411
7 | 23:52.12 | 4:46.25 | 107412 | 128886
8 | 28:38.37 | 4:03.13 | 128887 | 147124
9 | 32:41.50 | 4:48.45 | 147125 | 168769
10 | 37:30.20 | 4:16.25 | 168770 | 187994
11 | 41:46.45 | 5:20.07 | 187995 | 212001
12 | 47:06.52 | 2:31.08 | 212002 | 223334
13 | 49:37.60 | 5:18.15 | 223335 | 247199
14 | 54:56.00 | 5:26.57 | 247200 | 271706
15 | 60:22.57 | 3:08.33 | 271707 | 285839
Характеристики диапазона извлечения и сообщения об ошибках
Выбранный диапазон
Имя файла D:\EAC-FOLDER\Various - Wave the Antonio Carlos Jobim Songbook\Various - Wave the Antonio Carlos Jobim Songbook\Various - Wave the Antonio Carlos Jobim Songbook.wav
Пиковый уровень 93.1 %
Качество диапазона 100.0 %
CRC теста 81CC9B62
CRC копии 81CC9B62
Копирование... OK
Ошибок не произошло
AccurateRip: сводка
Трек 1 точность не определена (достоверность 2) [CA2E4255], AccurateRip вернул [EC829C85]
Трек 2 точность не определена (достоверность 2) [FA067933], AccurateRip вернул [D91040DD]
Трек 3 точность не определена (достоверность 2) [95CD29E4], AccurateRip вернул [ED153C14]
Трек 4 точность не определена (достоверность 2) [F14A2FF1], AccurateRip вернул [09349E63]
Трек 5 точность не определена (достоверность 2) [449E9DFE], AccurateRip вернул [C4ECFDC2]
Трек 6 точность не определена (достоверность 2) [F348C370], AccurateRip вернул [ED423A58]
Трек 7 точность не определена (достоверность 2) [9F972150], AccurateRip вернул [87999F36]
Трек 8 точность не определена (достоверность 2) [FFCB058F], AccurateRip вернул [D28AABC1]
Трек 9 точность не определена (достоверность 2) [DE29D759], AccurateRip вернул [A3E3D877]
Трек 10 точность не определена (достоверность 2) [A28AFA49], AccurateRip вернул [4EE3848D]
Трек 11 точность не определена (достоверность 2) [45F1A719], AccurateRip вернул [08737A4F]
Трек 12 точность не определена (достоверность 2) [F32CFE9E], AccurateRip вернул [B9EDC656]
Трек 13 точность не определена (достоверность 2) [8A6AE7A3], AccurateRip вернул [539AE1BF]
Трек 14 точность не определена (достоверность 2) [87A6F305], AccurateRip вернул [F08716C3]
Трек 15 точность не определена (достоверность 3) [43D4E3C8], AccurateRip вернул [8E89D4CF]
Ни один трек не прошёл проверки на точность
В вашей базе может быть иной вариант штамповки диска
Конец отчёта
Доп. информация: Вторая часть великолепной подборки "Отца Босса-новы" Антонио Карлоша Жобима:
http://rutracker.org/forum/viewtopic.php?t=404458
Джазовые гиганты "в одном флаконе" играют и поют евергрины.
Как говорится, "маст хэв"
PS Рип своими ручками с родного "Вёрва":
 
сертификатъ
внутри раздачи — сканы буклета и инлэя
06:02
577
Нет комментариев. Ваш будет первым!