Поиск

(bossa nova) Gilberto Gil – The Soul Of Brazil (The Very Best Of) - 2005, FLAC (image+.cue), lossless

(bossa nova) Gilberto Gil – The Soul Of Brazil (The Very Best Of) - 2005, FLAC (image+.cue), lossless
Треклист:
Gilberto Gil – The Soul Of Brazil (The Very Best Of)
Жанр: bossa nova
Год выпуска диска: 2005
Производитель диска: UE
Аудио кодек: FLAC
Тип рипа: image+.cue
Битрейт аудио: lossless
Продолжительность: 65:24
Трэклист:
01. Patuscade De Gandhi
02. Rebento
03. Toda Menina Baiana
04. Acertei No Milhar
05. Palco
06. Flora
07. Chegada Em Palmares [Instrumental]
08. Febril
09. Touche Pas À Mon Pote
10. Mar De Copacabana
11. Mardi Dix Mars
12. De Bob Dylan A Bob Marley - Um Samba Provocação
13. Buda Nagô
14. Pop Wu Wei
15. Lugar Do Nosso Amor
16. Ciência E Arte
17. Esperando Na Janela
18. Three Little Birds
19. Mãe Solteira
 
EAC log
Exact Audio Copy V0.99 prebeta 5 from 4. May 2009
EAC extraction logfile from 25. April 2010, 20:31
Gilberto Gil / The Soul of Brazil
Used drive : Optiarc DVD RW AD-7173A Adapter: 1 ID: 0
Read mode : Secure
Utilize accurate stream : Yes
Defeat audio cache : Yes
Make use of C2 pointers : No
Read offset correction : 48
Overread into Lead-In and Lead-Out : No
Fill up missing offset samples with silence : Yes
Delete leading and trailing silent blocks : No
Null samples used in CRC calculations : Yes
Used interface : Native Win32 interface for Win NT & 2000
Used output format : Internal WAV Routines
Sample format : 44.100 Hz; 16 Bit; Stereo
TOC of the extracted CD
Track | Start | Length | Start sector | End sector
---------------------------------------------------------
1 | 0:00.00 | 2:35.33 | 0 | 11657
2 | 2:35.33 | 2:56.44 | 11658 | 24901
3 | 5:32.02 | 3:46.14 | 24902 | 41865
4 | 9:18.16 | 2:06.00 | 41866 | 51315
5 | 11:24.16 | 4:25.02 | 51316 | 71192
6 | 15:49.18 | 4:16.17 | 71193 | 90409
7 | 20:05.35 | 2:34.64 | 90410 | 102023
8 | 22:40.24 | 3:38.20 | 102024 | 118393
9 | 26:18.44 | 3:46.49 | 118394 | 135392
10 | 30:05.18 | 3:49.07 | 135393 | 152574
11 | 33:54.25 | 4:04.53 | 152575 | 170927
12 | 37:59.03 | 3:45.64 | 170928 | 187866
13 | 41:44.67 | 3:29.36 | 187867 | 203577
14 | 45:14.28 | 3:12.56 | 203578 | 218033
15 | 48:27.09 | 3:31.25 | 218034 | 233883
16 | 51:58.34 | 3:08.43 | 233884 | 248026
17 | 55:07.02 | 4:21.51 | 248027 | 267652
18 | 59:28.53 | 3:11.02 | 267653 | 281979
19 | 62:39.55 | 2:44.64 | 281980 | 294343
Range status and errors
Selected range
Filename F:\AVAXHOME\Gilberto Gil - The Soul Of Brazil (2005)\Gilberto Gil - The Soul of Brazil.wav
Peak level 92.6 %
Range quality 99.9 %
Copy CRC 53011F47
Copy OK
No errors occurred
AccurateRip summary
Track 1 accurately ripped (confidence 9) [D5B5B7B4]
Track 2 accurately ripped (confidence 9) [DCE00F5A]
Track 3 accurately ripped (confidence 9) [8B7F7FD2]
Track 4 accurately ripped (confidence 9) [5A2B2883]
Track 5 accurately ripped (confidence 9) [717D11CB]
Track 6 accurately ripped (confidence 9) [F306241C]
Track 7 accurately ripped (confidence 9) [CC03F005]
Track 8 accurately ripped (confidence 9) [B12584C1]
Track 9 accurately ripped (confidence 9) [676A1184]
Track 10 accurately ripped (confidence 9) [354C6CC6]
Track 11 accurately ripped (confidence 9) [5D5F1E53]
Track 12 accurately ripped (confidence 9) [9307EFC6]
Track 13 accurately ripped (confidence 9) [32BB596F]
Track 14 accurately ripped (confidence 9) [A2AD8CC9]
Track 15 accurately ripped (confidence 9) [047BB771]
Track 16 accurately ripped (confidence 9) [264553B5]
Track 17 accurately ripped (confidence 9) [B4B95B1A]
Track 18 accurately ripped (confidence 9) [1D78166B]
Track 19 accurately ripped (confidence 9) [1D0FF4B3]
All tracks accurately ripped
End of status report
RIPPED BY JANWAL46
15:56
269
Нет комментариев. Ваш будет первым!