Поиск

(Tango nuevo, Latin Jazz) Astor Piazzolla (Астор Пьяццолла) - Tango Piazzolla. Key Works 1984-1989 - 1994, FLAC (image+.cue), lossless

(Tango nuevo, Latin Jazz) Astor Piazzolla (Астор Пьяццолла) - Tango Piazzolla. Key Works 1984-1989 - 1994, FLAC (image+.cue), lossless
Треклист:
Astor Piazzolla - Tango Piazzolla. Key Works 1984-1989 (1994)
FLAC-image
CUE/LOG
Complete covers

Жанр: Tango nuevo, Latin Jazz
Год выпуска диска: 1994
Производитель диска: GB, Music Collection International
Аудио кодек: FLAC
Тип рипа: image+.cue
Битрейт аудио: lossless
Продолжительность: 67:21 min.
Трэклист:
1. Vuelvo Al Sur
2. Ausencias
3. Oblivion
4. Tanti Anni Prima
5. Tango-Tango
6. Tristeza, Separacion
7. Suenos
8. Duo de Amor
9. Tanguedia III
10. Milonga del Angel [Live]
11. Adios Nonino [Live]
12. Nuevo Tango [Live]
13. Camorra II [Live]
14. Regreso Al Amor

 
Доп. информация (EN):
Tango Piazolla, Key Works 1984-1989 (Music Club MCCD 165, 1994, Great Britain)
(reissued in the US as Songs from a Heavy Heart: Essential Tangos 1984-1989 (Music Collection 50014, 1996, USA)*)
Recorded at: Studio Delphine, Paris 12/84; Studio ICP, Brussels 11/84; Studio Panda, Buenos Aires 04/85 and Studio Ion, Buenos Aires 12/87. Tracks 10-13 recorded live at Moulin `a Danses, Lausanne, Switzerland, 04/11/89. Trancks 1, 6, 7 and 14 taken from the original soundtrack album 'Sur' (Milan Sur CD13978-2/C358), a film by Fernando E. Solanas.
Astor Piazolla: Bandoneon
Susana Lago: Vocals, Piano & Synthesizer
Pablo Ziegler, Gerardo Gandini: Piano
Roberto Goyeneche, Miguel Angel Sola: Vocals
Kurzwell Omar Espinosa: Acoustic Guitar, Gibson Classic
Horacio Malvino, Oscar Lopez Ruiz: Electric Guitar
Alain Huteau: Alto Saxophone, Drums
Jean-Louis Carlotti, Hector Consoli, Angel Ridolfi: Bass
Daniel Cabrera, Daniel Binelli: Bandoneon
Fernando Suarez Paz: Violin
Carlos Nozzi: Cello
During his career Piazzolla constantly experimented with new formations with varying results. The years in Italy, often represented on the albums you see in record shops in Europe, are far from the best.
Even if music critics rightly point to the three albums on American Clave as his best work (surely you've heard of Zero Hour), his most enjoyable work comes from his last years, and there has never been a better album of this material than this 1994 album on the British label Music Club. Despite being re-issued in the USA in 1996 under the title Songs From A Heavy Heart, this cd was deleted a long time ago but we've been busy buying up stocks from around the world and are pleased to offer it in our music club.
Standout tracks - Sur (with Roberto Goyeneche), Milonga del Angel and Oblivion

Источник: собственный рип
 
Отчёт EAC
Exact Audio Copy V0.99 prebeta 4 from 23. January 2008
EAC extraction logfile from 15. May 2010, 12:56
Astor Piazzolla / Key Works 1984-1989
Used drive : HL-DT-STDVDRAM GSA-T10N Adapter: 1 ID: 0
Read mode : Secure
Utilize accurate stream : Yes
Defeat audio cache : Yes
Make use of C2 pointers : No
Read offset correction : 667
Overread into Lead-In and Lead-Out : No
Fill up missing offset samples with silence : Yes
Delete leading and trailing silent blocks : No
Null samples used in CRC calculations : Yes
Used interface : Native Win32 interface for Win NT & 2000
Used output format : User Defined Encoder
Selected bitrate : 320 kBit/s
Quality : High
Add ID3 tag : No
Command line compressor : C:\[...]\FLAC\flac.exe
Additional command line options : -5 -V -T "Artist=%a" -T "Title=%t" -T "Album=%g" -T "Date=%y" -T "Tracknumber=%n" -T "Genre=%m" %s -o %d
TOC of the extracted CD
Track | Start | Length | Start sector | End sector
---------------------------------------------------------
1 | 0:00.32 | 4:04.43 | 32 | 18374
2 | 4:05.00 | 3:31.27 | 18375 | 34226
3 | 7:36.27 | 3:35.28 | 34227 | 50379
4 | 11:11.55 | 5:37.42 | 50380 | 75696
5 | 16:49.22 | 4:24.43 | 75697 | 95539
6 | 21:13.65 | 2:56.37 | 95540 | 108776
7 | 24:10.27 | 2:59.08 | 108777 | 122209
8 | 27:09.35 | 5:01.20 | 122210 | 144804
9 | 32:10.55 | 4:29.40 | 144805 | 165019
10 | 36:40.20 | 6:14.10 | 165020 | 193079
11 | 42:54.30 | 8:25.65 | 193080 | 231019
12 | 51:20.20 | 6:22.30 | 231020 | 259699
13 | 57:42.50 | 3:21.32 | 259700 | 274806
14 | 61:04.07 | 6:17.30 | 274807 | 303111
Range status and errors
Selected range
Filename C:\Astor Piazzolla - Key Works 1984-1989.wav
Peak level 89.0 %
Range quality 100.0 %
Test CRC F37F8245
Copy CRC F37F8245
Copy OK
No errors occurred
AccurateRip summary
Track 1 accurately ripped (confidence 6) [70F499F8]
Track 2 accurately ripped (confidence 6) [AB172D42]
Track 3 accurately ripped (confidence 6) [28468077]
Track 4 accurately ripped (confidence 6) [5F1BAB0A]
Track 5 accurately ripped (confidence 6) [9C63BD00]
Track 6 accurately ripped (confidence 6) [A8246B82]
Track 7 accurately ripped (confidence 6) [0F7CEB5F]
Track 8 accurately ripped (confidence 6) [7B508C1C]
Track 9 accurately ripped (confidence 6) [928D16FA]
Track 10 accurately ripped (confidence 6) [7D5FCC7B]
Track 11 accurately ripped (confidence 6) [E34333D3]
Track 12 accurately ripped (confidence 6) [6ECF33B6]
Track 13 accurately ripped (confidence 6) [54F30EBF]
Track 14 accurately ripped (confidence 6) [DD104B09]
All tracks accurately ripped
End of status report

Коврики: http://uploadbud.com/files/LOY7E3ED/piazzolla-key-works-covers_1.zip
Другие файло-обменники - см. ниже.
15:55
302
Нет комментариев. Ваш будет первым!