Поиск

(Latin Jazz / Afro-Cuban Jazz) Snowboy & the Latin Section - Pit Bull Latin Jazz (AJ-68011-2) - 1996, FLAC (tracks+.cue), lossless

(Latin Jazz / Afro-Cuban Jazz) Snowboy & the Latin Section - Pit Bull Latin Jazz (AJ-68011-2) - 1996, FLAC (tracks+.cue), lossless
Треклист:
Snowboy & the Latin Section - Pit Bull Latin Jazz
Жанр: Latin Jazz / Afro-Cuban Jazz
Год выпуска диска: 1996
Производитель диска: Hollywood Records
Аудио кодек: FLAC
Тип рипа: tracks+.cue
Битрейт аудио: lossless
Продолжительность: 48:06
01 - Go Snow, Go [02:22]
02 - L4 Cuero [05:39]
03 - There's Nothing Like This [04:27]
04 - Havana Club [04:40]
05 - What The Hell's Going On [07:30]
06 - Mambo Tumbadora [06:39]
07 - Little Man (Machito) [04:47]
08 - The East Harlem Quickstep [08:04]
09 - The Sound of the Berimbau [02:24]
10 - Toque Y Canto Para Dada [01:29]
Собственноручный рип с оригинального диска от funky_cat!
 
Log EAC
Exact Audio Copy V0.99 prebeta 5 from 4. May 2009
EAC extraction logfile from 10. May 2010, 12:20
Snowboy & the Latin Section / Pit Bull Latin Jazz
Used drive : ASUS DRW-1608P2 Adapter: 1 ID: 1
Read mode : Secure
Utilize accurate stream : Yes
Defeat audio cache : Yes
Make use of C2 pointers : No
Read offset correction : 48
Overread into Lead-In and Lead-Out : No
Fill up missing offset samples with silence : Yes
Delete leading and trailing silent blocks : No
Null samples used in CRC calculations : Yes
Used interface : Native Win32 interface for Win NT & 2000
Gap handling : Appended to previous track
Used output format : User Defined Encoder
Selected bitrate : 1024 kBit/s
Quality : High
Add ID3 tag : No
Command line compressor : C:\Program Files\FLAC\flac.exe
Additional command line options : -5 -V -T "ARTIST=%a" -T "TITLE=%t" -T "ALBUM=%g" -T "DATE=%y" -T "TRACKNUMBER=%n" -T "GENRE=%m" -T "COMMENT=Ripped by andygrakoff aka yetiisyou" %s
TOC of the extracted CD
Track | Start | Length | Start sector | End sector
---------------------------------------------------------
1 | 0:00.00 | 2:22.52 | 0 | 10701
2 | 2:22.52 | 5:39.35 | 10702 | 36161
3 | 8:02.12 | 4:27.48 | 36162 | 56234
4 | 12:29.60 | 4:40.62 | 56235 | 77296
5 | 17:10.47 | 7:30.43 | 77297 | 111089
6 | 24:41.15 | 6:39.65 | 111090 | 141079
7 | 31:21.05 | 4:47.17 | 141080 | 162621
8 | 36:08.22 | 8:04.53 | 162622 | 198974
9 | 44:13.00 | 2:24.10 | 198975 | 209784
10 | 46:37.10 | 1:29.47 | 209785 | 216506
Track 1
Filename E:\!Rips\Snowboy & the Latin Section - Pit Bull Latin Jazz (aj-68011-2) 1996\01 - Go Snow, Go.wav
Pre-gap length 0:00:02.00
Peak level 99.0 %
Track quality 100.0 %
Test CRC 310E12C9
Copy CRC 310E12C9
Track not present in AccurateRip database
Copy OK
Track 2
Filename E:\!Rips\Snowboy & the Latin Section - Pit Bull Latin Jazz (aj-68011-2) 1996\02 - L4 Cuero.wav
Peak level 99.7 %
Track quality 100.0 %
Test CRC 4085B9C4
Copy CRC 4085B9C4
Track not present in AccurateRip database
Copy OK
Track 3
Filename E:\!Rips\Snowboy & the Latin Section - Pit Bull Latin Jazz (aj-68011-2) 1996\03 - There's Nothing Like This.wav
Peak level 98.8 %
Track quality 99.9 %
Test CRC 36A4B372
Copy CRC 36A4B372
Track not present in AccurateRip database
Copy OK
Track 4
Filename E:\!Rips\Snowboy & the Latin Section - Pit Bull Latin Jazz (aj-68011-2) 1996\04 - Havana Club.wav
Peak level 99.0 %
Track quality 100.0 %
Test CRC 2B02C1ED
Copy CRC 2B02C1ED
Track not present in AccurateRip database
Copy OK
Track 5
Filename E:\!Rips\Snowboy & the Latin Section - Pit Bull Latin Jazz (aj-68011-2) 1996\05 - What The Hell's Going On.wav
Peak level 98.4 %
Track quality 100.0 %
Test CRC 5DFE7326
Copy CRC 5DFE7326
Track not present in AccurateRip database
Copy OK
Track 6
Filename E:\!Rips\Snowboy & the Latin Section - Pit Bull Latin Jazz (aj-68011-2) 1996\06 - Mambo Tumbadora.wav
Peak level 99.3 %
Track quality 100.0 %
Test CRC 1F92EE49
Copy CRC 1F92EE49
Track not present in AccurateRip database
Copy OK
Track 7
Filename E:\!Rips\Snowboy & the Latin Section - Pit Bull Latin Jazz (aj-68011-2) 1996\07 - Little Man (Machito).wav
Peak level 98.3 %
Track quality 99.9 %
Test CRC 3FDFED4A
Copy CRC 3FDFED4A
Track not present in AccurateRip database
Copy OK
Track 8
Filename E:\!Rips\Snowboy & the Latin Section - Pit Bull Latin Jazz (aj-68011-2) 1996\08 - The East Harlem Quickstep.wav
Peak level 100.0 %
Track quality 100.0 %
Test CRC 5DCCAE42
Copy CRC 5DCCAE42
Track not present in AccurateRip database
Copy OK
Track 9
Filename E:\!Rips\Snowboy & the Latin Section - Pit Bull Latin Jazz (aj-68011-2) 1996\09 - The Sound of the Berimbau.wav
Peak level 99.0 %
Track quality 99.9 %
Test CRC 82D4AC3C
Copy CRC 82D4AC3C
Track not present in AccurateRip database
Copy OK
Track 10
Filename E:\!Rips\Snowboy & the Latin Section - Pit Bull Latin Jazz (aj-68011-2) 1996\10 - Toque Y Canto Para Dada.wav
Peak level 87.3 %
Track quality 100.0 %
Test CRC 77F0703D
Copy CRC 77F0703D
Track not present in AccurateRip database
Copy OK
None of the tracks are present in the AccurateRip database
No errors occurred
End of status report
 
CUE
REM DATE 1996
REM DISCID 890B460A
REM COMMENT "ExactAudioCopy v0.99pb5"
PERFORMER "Snowboy & the Latin Section"
TITLE "Pit Bull Latin Jazz"
FILE "01 - Go Snow, Go.wav" WAVE
TRACK 01 AUDIO
TITLE "Go Snow, Go"
PERFORMER "Snowboy & the Latin Section"
INDEX 01 00:00:00
FILE "02 - L4 Cuero.wav" WAVE
TRACK 02 AUDIO
TITLE "L4 Cuero"
PERFORMER "Snowboy & the Latin Section"
INDEX 01 00:00:00
FILE "03 - There's Nothing Like This.wav" WAVE
TRACK 03 AUDIO
TITLE "There's Nothing Like This"
PERFORMER "Snowboy & the Latin Section"
INDEX 01 00:00:00
FILE "04 - Havana Club.wav" WAVE
TRACK 04 AUDIO
TITLE "Havana Club"
PERFORMER "Snowboy & the Latin Section"
INDEX 01 00:00:00
FILE "05 - What The Hell's Going On.wav" WAVE
TRACK 05 AUDIO
TITLE "What The Hell's Going On"
PERFORMER "Snowboy & the Latin Section"
INDEX 01 00:00:00
FILE "06 - Mambo Tumbadora.wav" WAVE
TRACK 06 AUDIO
TITLE "Mambo Tumbadora"
PERFORMER "Snowboy & the Latin Section"
INDEX 01 00:00:00
FILE "07 - Little Man (Machito).wav" WAVE
TRACK 07 AUDIO
TITLE "Little Man (Machito)"
PERFORMER "Snowboy & the Latin Section"
INDEX 01 00:00:00
FILE "08 - The East Harlem Quickstep.wav" WAVE
TRACK 08 AUDIO
TITLE "The East Harlem Quickstep"
PERFORMER "Snowboy & the Latin Section"
INDEX 01 00:00:00
FILE "09 - The Sound of the Berimbau.wav" WAVE
TRACK 09 AUDIO
TITLE "The Sound of the Berimbau"
PERFORMER "Snowboy & the Latin Section"
INDEX 01 00:00:00
FILE "10 - Toque Y Canto Para Dada.wav" WAVE
TRACK 10 AUDIO
TITLE "Toque Y Canto Para Dada"
PERFORMER "Snowboy & the Latin Section"
INDEX 01 00:00:00
 
AuCDtect
-----------------------
DON'T MODIFY THIS FILE
-----------------------
PERFORMER: auCDtect Task Manager, ver. 1.0.3 B1 build 1.0.3.0
Copyright (c) 2008, 2009 y-soft. All rights reserved
http://y-soft.110mb.com
ANALYZER: auCDtect: CD records authenticity detector, version 0.8.2
Copyright (c) 2004 Oleg Berngardt. All rights reserved.
Copyright (c) 2004 Alexander Djourik. All rights reserved.
FILE: 01 - Go Snow, Go.flac
Size: 9012840 Hash: 53BFDAAF32619BC95D03ED19356BA691 Accuracy: -m0
Conclusion: CDDA 100%
Signature: 7F73E8177B70FE2D1CEFEF5FED4B6ECA47F3778C
FILE: 02 - L4 Cuero.flac
Size: 40797171 Hash: 9C515BB4D6BF70F09849A915E1C1C1CF Accuracy: -m0
Conclusion: CDDA 99%
Signature: F8E6A7CD639B9F6BF50EE56C20B7A83A85BECF20
FILE: 03 - There's Nothing Like This.flac
Size: 28903355 Hash: 5DDF6487D52C4E458A0F510D3CBBFECC Accuracy: -m0
Conclusion: CDDA 100%
Signature: 95B674F7F741E9445123AB65AE2F93E591FBB64B
FILE: 04 - Havana Club.flac
Size: 32225469 Hash: E2776A4186F6D54421C9DDA4E95D3766 Accuracy: -m0
Conclusion: CDDA 100%
Signature: F7821478B42BE5849CB3EDBCECA1CDD31DBD8D74
FILE: 07 - Little Man (Machito).flac
Size: 34031287 Hash: 40D3651E9116390E357A0FDC3532EDA0 Accuracy: -m0
Conclusion: CDDA 100%
Signature: 9404BEA7E132D218C3570BBDE0C8588D69299BF3
FILE: 06 - Mambo Tumbadora.flac
Size: 44252648 Hash: 16446D53D32EB010877DFC3829CE3411 Accuracy: -m0
Conclusion: CDDA 100%
Signature: 8B20ABDA58DD143687D6FB096B81D85FC0BAC959
FILE: 05 - What The Hell's Going On.flac
Size: 50771429 Hash: 91B1435B0956DAB81A5D4B19C4A2B521 Accuracy: -m0
Conclusion: CDDA 100%
Signature: D5A6321E5FDAEA8F312BA5DFF325B22935E810D1
FILE: 09 - The Sound of the Berimbau.flac
Size: 10442966 Hash: D8DAE2B9E9A66EF7C846A2805BDD264C Accuracy: -m0
Conclusion: CDDA 99%
Signature: ADBD14DBC6A672AEC367B88BCEE62C6F9C760B93
FILE: 10 - Toque Y Canto Para Dada.flac
Size: 6440858 Hash: 85D652A08F3BB9CE50A39820539FF0D3 Accuracy: -m0
Conclusion: CDDA 100%
Signature: C414763A59BDC69565B61A56EB0160C664E429EC
FILE: 08 - The East Harlem Quickstep.flac
Size: 54932755 Hash: 304E0EFDD459F6CC8C4A51617236F448 Accuracy: -m0
Conclusion: CDDA 100%
Signature: 56F604E2836E483A91352DA5BC9952A7D581E4AD
15:56
336
Нет комментариев. Ваш будет первым!