Поиск

(Bossa-nova, Contemporary Jazz, Modern Jazz, World) Jun Miyake - Stolen From Strangers - 2008, FLAC (tracks+.cue), lossless

(Bossa-nova, Contemporary Jazz, Modern Jazz, World) Jun Miyake - Stolen From Strangers - 2008, FLAC (tracks+.cue), lossless
Треклист:
Jun Miyake / Stolen From Strangers
Жанр: Bossa-nova, Contemporary Jazz, Modern Jazz, World
Страна-производитель диска: Germany
Год издания: 2008
Издатель (лейбл): Yellowbird
Номер по каталогу: yeb-7706 2
Страна: Japan
Аудиокодек: FLAC (*.flac)
Тип рипа: tracks+.cue
Битрейт аудио: lossless
Продолжительность: 45:52
Источник: what.cd
Наличие сканов в содержимом раздачи: да
Треклист:
01. Alviverde [5:30]
02. O FIM [2:25]
03. tHe heRe aNd afTer [5:07]
04. Turn Back [5:00]
05. Abandon Sight [2:07]
06. Le Voyageur Solitaire [3:47]
07. Easturn [3:53]
08. Le Mec Dans Un Train [3:55]
09. Est Ce Que Tu Peux Me Voir ? [4:26]
10. Outros Escuros [5:34]
11. Overture But The Rainbow Is So Far Away [0:45]
12. Niji Wa Tohku [3:22]
 
Лог создания рипа
Exact Audio Copy V1.0 beta 2 from 29. April 2011
EAC extraction logfile from 7. February 2012, 21:06
Jun Miyake / Stolen from strangers
Used drive : ATAPI iHAS524 A Adapter: 0 ID: 1
Read mode : Secure
Utilize accurate stream : Yes
Defeat audio cache : Yes
Make use of C2 pointers : No
Read offset correction : 6
Overread into Lead-In and Lead-Out : No
Fill up missing offset samples with silence : Yes
Delete leading and trailing silent blocks : No
Null samples used in CRC calculations : Yes
Used interface : Native Win32 interface for Win NT & 2000
Gap handling : Appended to previous track
Used output format : User Defined Encoder
Selected bitrate : 32 kBit/s
Quality : High
Add ID3 tag : No
Command line compressor : C:\Program Files (x86)\Exact Audio Copy\Flac\flac.exe
Additional command line options : -8 -V -T "ARTIST=%artist%" -T "TITLE=%title%" -T "ALBUM=%albumtitle%" -T "DATE=%year%" -T "TRACKNUMBER=%tracknr%" -T "GENRE=%genre%" -T "PERFORMER=%albuminterpret%" -T "COMPOSER=%composer%" %haslyrics%--tag-from-file=LYRICS
TOC of the extracted CD
Track | Start | Length | Start sector | End sector
---------------------------------------------------------
1 | 0:00.07 | 5:30.10 | 7 | 24766
2 | 5:30.17 | 2:24.74 | 24767 | 35640
3 | 7:55.16 | 5:07.36 | 35641 | 58701
4 | 13:02.52 | 5:00.03 | 58702 | 81204
5 | 18:02.55 | 2:06.60 | 81205 | 90714
6 | 20:09.40 | 3:46.70 | 90715 | 107734
7 | 23:56.35 | 3:53.10 | 107735 | 125219
8 | 27:49.45 | 3:55.27 | 125220 | 142871
9 | 31:44.72 | 4:25.52 | 142872 | 162798
10 | 36:10.49 | 5:34.21 | 162799 | 187869
11 | 41:44.70 | 0:45.33 | 187870 | 191277
12 | 42:30.28 | 3:21.47 | 191278 | 206399
Track 1
Filename C:\EAC\Jun Miyake - Stolen from strangers (yellowbird 2008) (flac)\01 - Alviverde.wav
Pre-gap length 0:00:02.07
Peak level 99.8 %
Extraction speed 3.8 X
Track quality 100.0 %
Test CRC ABB1EF1F
Copy CRC ABB1EF1F
Accurately ripped (confidence 6) [1CA53396] (AR v2)
Copy OK
Track 2
Filename C:\EAC\Jun Miyake - Stolen from strangers (yellowbird 2008) (flac)\02 - O FIM.wav
Peak level 100.0 %
Extraction speed 3.7 X
Track quality 100.0 %
Test CRC FD6B6F64
Copy CRC FD6B6F64
Accurately ripped (confidence 6) [D2C89CFE] (AR v2)
Copy OK
Track 3
Filename C:\EAC\Jun Miyake - Stolen from strangers (yellowbird 2008) (flac)\03 - tHe heRe aNd afTer.wav
Pre-gap length 0:00:00.19
Peak level 95.5 %
Extraction speed 4.5 X
Track quality 100.0 %
Test CRC FCCA0879
Copy CRC FCCA0879
Accurately ripped (confidence 6) [E4CB0A79] (AR v2)
Copy OK
Track 4
Filename C:\EAC\Jun Miyake - Stolen from strangers (yellowbird 2008) (flac)\04 - turn back.wav
Pre-gap length 0:00:01.38
Peak level 100.0 %
Extraction speed 4.9 X
Track quality 100.0 %
Test CRC DCF53DFB
Copy CRC DCF53DFB
Accurately ripped (confidence 6) [25B06F73] (AR v2)
Copy OK
Track 5
Filename C:\EAC\Jun Miyake - Stolen from strangers (yellowbird 2008) (flac)\05 - abandon sight.wav
Peak level 93.5 %
Extraction speed 3.2 X
Track quality 99.9 %
Test CRC 2AF1EBF8
Copy CRC 2AF1EBF8
Accurately ripped (confidence 6) [83F616D2] (AR v2)
Copy OK
Track 6
Filename C:\EAC\Jun Miyake - Stolen from strangers (yellowbird 2008) (flac)\06 - Le Voyager Solitaire.wav
Peak level 64.4 %
Extraction speed 5.1 X
Track quality 100.0 %
Test CRC D0FB78F7
Copy CRC D0FB78F7
Accurately ripped (confidence 6) [903DD11B] (AR v2)
Copy OK
Track 7
Filename C:\EAC\Jun Miyake - Stolen from strangers (yellowbird 2008) (flac)\07 - Easturn.wav
Peak level 100.0 %
Extraction speed 5.3 X
Track quality 100.0 %
Test CRC 60A9EA94
Copy CRC 60A9EA94
Accurately ripped (confidence 6) [AB5D2089] (AR v2)
Copy OK
Track 8
Filename C:\EAC\Jun Miyake - Stolen from strangers (yellowbird 2008) (flac)\08 - Le mec dans un train.wav
Peak level 79.3 %
Extraction speed 4.5 X
Track quality 99.9 %
Test CRC 08494670
Copy CRC 08494670
Accurately ripped (confidence 6) [73E7DE2D] (AR v2)
Copy OK
Track 9
Filename C:\EAC\Jun Miyake - Stolen from strangers (yellowbird 2008) (flac)\09 - est-ce que tu peux me voir.wav
Peak level 95.3 %
Extraction speed 6.0 X
Track quality 100.0 %
Test CRC 4C01322D
Copy CRC 4C01322D
Accurately ripped (confidence 6) [360D765C] (AR v2)
Copy OK
Track 10
Filename C:\EAC\Jun Miyake - Stolen from strangers (yellowbird 2008) (flac)\10 - Outros Escuros.wav
Peak level 100.0 %
Extraction speed 5.5 X
Track quality 99.9 %
Test CRC 5CC984D4
Copy CRC 5CC984D4
Accurately ripped (confidence 6) [47F0A523] (AR v2)
Copy OK
Track 11
Filename C:\EAC\Jun Miyake - Stolen from strangers (yellowbird 2008) (flac)\11 - Overture ~ but the rainbow is so far away.wav
Peak level 43.2 %
Extraction speed 4.0 X
Track quality 100.0 %
Test CRC D201ED76
Copy CRC D201ED76
Accurately ripped (confidence 6) [8A5B166D] (AR v2)
Copy OK
Track 12
Filename C:\EAC\Jun Miyake - Stolen from strangers (yellowbird 2008) (flac)\12 - Niji wa Tohku.wav
Peak level 100.0 %
Extraction speed 6.3 X
Track quality 100.0 %
Test CRC C5708654
Copy CRC C5708654
Accurately ripped (confidence 6) [A3B636CF] (AR v2)
Copy OK
All tracks accurately ripped
No errors occurred
End of status report
==== Log checksum E666FF18C7008CD45665E8FBCCE0F83738788A7665CAE9EBC57583599045CFA3 ====
 
Содержание индексной карты (.CUE)
REM GENRE "Jazz"
REM DATE 2008
REM DISCID 970AC00C
REM COMMENT "ExactAudioCopy v1.0b2"
PERFORMER "Jun Miyake"
TITLE "Stolen from strangers"
FILE "01 - Alviverde.wav" WAVE
TRACK 01 AUDIO
TITLE "Alviverde"
PERFORMER "Jun Miyake"
ISRC JPB520700018
PREGAP 00:00:07
INDEX 01 00:00:00
FILE "02 - O FIM.wav" WAVE
TRACK 02 AUDIO
TITLE "O FIM"
PERFORMER "Jun Miyake"
ISRC JPB520700019
INDEX 01 00:00:00
TRACK 03 AUDIO
TITLE "tHe heRe aNd afTer"
PERFORMER "Jun Miyake"
ISRC JPB520700020
INDEX 00 02:24:55
FILE "03 - tHe heRe aNd afTer.wav" WAVE
INDEX 01 00:00:00
TRACK 04 AUDIO
TITLE "turn back"
PERFORMER "Jun Miyake"
ISRC JPB520700021
INDEX 00 05:05:73
FILE "04 - turn back.wav" WAVE
INDEX 01 00:00:00
FILE "05 - abandon sight.wav" WAVE
TRACK 05 AUDIO
TITLE "abandon sight"
PERFORMER "Jun Miyake"
ISRC JPB520700022
INDEX 01 00:00:00
FILE "06 - Le Voyager Solitaire.wav" WAVE
TRACK 06 AUDIO
TITLE "Le Voyager Solitaire"
PERFORMER "Jun Miyake"
ISRC JPB520700023
INDEX 01 00:00:00
FILE "07 - Easturn.wav" WAVE
TRACK 07 AUDIO
TITLE "Easturn"
PERFORMER "Jun Miyake"
ISRC JPB520700024
INDEX 01 00:00:00
FILE "08 - Le mec dans un train.wav" WAVE
TRACK 08 AUDIO
TITLE "Le mec dans un train"
PERFORMER "Jun Miyake"
ISRC JPB520700025
INDEX 01 00:00:00
FILE "09 - est-ce que tu peux me voir.wav" WAVE
TRACK 09 AUDIO
TITLE "est-ce que tu peux me voir?"
PERFORMER "Jun Miyake"
ISRC JPB520700026
INDEX 01 00:00:00
FILE "10 - Outros Escuros.wav" WAVE
TRACK 10 AUDIO
TITLE "Outros Escuros"
PERFORMER "Jun Miyake"
ISRC JPB520700027
INDEX 01 00:00:00
FILE "11 - Overture ~ but the rainbow is so far away.wav" WAVE
TRACK 11 AUDIO
TITLE "Overture ~ but the rainbow is so far away"
PERFORMER "Jun Miyake"
ISRC JPB520700028
INDEX 01 00:00:00
FILE "12 - Niji wa Tohku.wav" WAVE
TRACK 12 AUDIO
TITLE "Niji wa Tohku"
PERFORMER "Jun Miyake"
ISRC JPB520700029
INDEX 01 00:00:00
10:10
274
Нет комментариев. Ваш будет первым!