Поиск

(Klezmer, Yiddish, Jewish, Tzadik) The Cracow Klezmer Band - Bereshit - 2003, FLAC (tracks+.cue) lossless

(Klezmer, Yiddish, Jewish, Tzadik) The Cracow Klezmer Band - Bereshit - 2003, FLAC (tracks+.cue) lossless
Треклист:
The Cracow Klezmer Band / Bereshit
Жанр: Klezmer, Yiddish, Jewish, Tzadik
Страна-производитель диска: U.S.A.
Год издания диска: 2003
Издатель (лейбл): Tzadik
Номер по каталогу: TZ 7183
Аудиокодек: FLAC
Тип рипа: tracks+.cue
Битрейт аудио: lossless
Продолжительность: 56:16
Источник: CD
сайт-источник/ник/другое: Max Monteiro
Наличие сканов в содержимом раздачи: нет
Треклист:
1. Ets Hayyim 9:12
2. Tsive Ha-Shamayyim 5:21
3. Gil Gul 9:44
4. Dim’ot Yisrael 5:43
5. Sippuro Shel Shed 3:07
6. Holef 8:02
7. ‘Otsmat 9:14
8. Bereshit 5:53
All compositions and arrangements by Jarosław Bester.
 
Лог создания рипа
Exact Audio Copy V1.0 beta 3 from 29. August 2011
EAC extraction logfile from 29. March 2013, 15:37
The Cracow Klezmer Band / Bereshit
Used drive : SlimtypeeNAU508 5 Adapter: 1 ID: 0
Read mode : Secure
Utilize accurate stream : Yes
Defeat audio cache : Yes
Make use of C2 pointers : No
Read offset correction : 6
Overread into Lead-In and Lead-Out : No
Fill up missing offset samples with silence : Yes
Delete leading and trailing silent blocks : No
Null samples used in CRC calculations : Yes
Used interface : Native Win32 interface for Win NT & 2000
Gap handling : Appended to previous track
Used output format : User Defined Encoder
Selected bitrate : 768 kBit/s
Quality : High
Add ID3 tag : No
Command line compressor : C:\Program Files (x86)\Exact Audio Copy\Flac\flac.exe
Additional command line options : -8 -V -T "ARTIST=%artist%" -T "TITLE=%title%" -T "ALBUM=%albumtitle%" -T "DATE=%year%" -T "TRACKNUMBER=%tracknr%" -T "GENRE=%genre%" -T "PERFORMER=%albuminterpret%" -T "COMPOSER=%composer%" %haslyrics%--tag-from-file=LYRICS="%lyricsfile%"%haslyrics% -T "ALBUMARTIST=%albumartist%" -T "DISCNUMBER=%cdnumber%" -T "TOTALDISCS=%totalcds%" -T "TOTALTRACKS=%numtracks%" -T "COMMENT=%comment%" %source% -o %dest%
TOC of the extracted CD
Track | Start | Length | Start sector | End sector
---------------------------------------------------------
1 | 0:00.00 | 9:12.28 | 0 | 41427
2 | 9:12.28 | 5:20.50 | 41428 | 65477
3 | 14:33.03 | 9:44.11 | 65478 | 109288
4 | 24:17.14 | 5:42.70 | 109289 | 135008
5 | 30:00.09 | 3:07.30 | 135009 | 149063
6 | 33:07.39 | 8:02.15 | 149064 | 185228
7 | 41:09.54 | 9:13.63 | 185229 | 226766
8 | 50:23.42 | 5:52.61 | 226767 | 253227
Track 1
Filename C:\EAC rips\01 - Ets Hayyim.wav
Pre-gap length 0:00:02.00
Peak level 98.8 %
Extraction speed 1.2 X
Track quality 100.0 %
Test CRC 3087FF66
Copy CRC 3087FF66
Accurately ripped (confidence 8) [2BF9CDD1] (AR v1)
Copy OK
Track 2
Filename C:\EAC rips\02 - Tsive Ha-Shamayyim.wav
Pre-gap length 0:00:01.07
Peak level 98.8 %
Extraction speed 1.2 X
Track quality 99.9 %
Test CRC B71DE339
Copy CRC B71DE339
Accurately ripped (confidence 8) [410C6753] (AR v1)
Copy OK
Track 3
Filename C:\EAC rips\03 - Gil Gul.wav
Peak level 98.8 %
Extraction speed 1.6 X
Track quality 100.0 %
Test CRC D42CE6E3
Copy CRC D42CE6E3
Accurately ripped (confidence 8) [FF8A55BE] (AR v1)
Copy OK
Track 4
Filename C:\EAC rips\04 - Dim'ot Yisrael.wav
Peak level 98.8 %
Extraction speed 1.6 X
Track quality 99.9 %
Test CRC C76CA4F5
Copy CRC C76CA4F5
Accurately ripped (confidence 8) [0BC24D6E] (AR v1)
Copy OK
Track 5
Filename C:\EAC rips\05 - Sippuro Shel Shed.wav
Peak level 98.8 %
Extraction speed 1.7 X
Track quality 100.0 %
Test CRC 23D0419A
Copy CRC 23D0419A
Accurately ripped (confidence 8) [D8DED729] (AR v1)
Copy OK
Track 6
Filename C:\EAC rips\06 - Holef.wav
Pre-gap length 0:00:01.20
Peak level 98.8 %
Extraction speed 2.0 X
Track quality 100.0 %
Test CRC 4B151B04
Copy CRC 4B151B04
Accurately ripped (confidence 8) [2C7A8922] (AR v1)
Copy OK
Track 7
Filename C:\EAC rips\07 - 'Otsmat.wav
Peak level 98.8 %
Extraction speed 2.1 X
Track quality 100.0 %
Test CRC B92DF769
Copy CRC B92DF769
Accurately ripped (confidence 8) [E8F64CE5] (AR v1)
Copy OK
Track 8
Filename C:\EAC rips\08 - Bereshit.wav
Peak level 98.8 %
Extraction speed 2.2 X
Track quality 100.0 %
Test CRC E0C513DD
Copy CRC E0C513DD
Accurately ripped (confidence 7) [9CC32FCB] (AR v1)
Copy OK
All tracks accurately ripped
No errors occurred
End of status report
---- CUETools DB Plugin V2.1.4
[CTDB TOCID: XdDXlO4kyX.5ZejLhRCYhAS7TtM-] found
Submit result: XdDXlO4kyX.5ZejLhRCYhAS7TtM- has been confirmed
Track | CTDB Status
1 | (4/4) Accurately ripped
2 | (4/4) Accurately ripped
3 | (4/4) Accurately ripped
4 | (4/4) Accurately ripped
5 | (4/4) Accurately ripped
6 | (4/4) Accurately ripped
7 | (4/4) Accurately ripped
8 | (4/4) Accurately ripped
==== Log checksum 8882187342D00CEE5E4D04B39460995BB8FDDE756AF93AFBE4884C54398FC23F ====
 
Содержание индексной карты (.CUE)
REM GENRE Klezmer
REM DATE 2003
REM DISCID 750D3008
REM COMMENT "ExactAudioCopy v1.0b3"
PERFORMER "The Cracow Klezmer Band"
TITLE "Bereshit"
FILE "01 - Ets Hayyim.wav" WAVE
TRACK 01 AUDIO
TITLE "Ets Hayyim"
PERFORMER "The Cracow Klezmer Band"
INDEX 01 00:00:00
TRACK 02 AUDIO
TITLE "Tsive Ha-Shamayyim"
PERFORMER "The Cracow Klezmer Band"
INDEX 00 09:11:21
FILE "02 - Tsive Ha-Shamayyim.wav" WAVE
INDEX 01 00:00:00
FILE "03 - Gil Gul.wav" WAVE
TRACK 03 AUDIO
TITLE "Gil Gul"
PERFORMER "The Cracow Klezmer Band"
INDEX 01 00:00:00
FILE "04 - Dim'ot Yisrael.wav" WAVE
TRACK 04 AUDIO
TITLE "Dim'ot Yisrael"
PERFORMER "The Cracow Klezmer Band"
INDEX 01 00:00:00
FILE "05 - Sippuro Shel Shed.wav" WAVE
TRACK 05 AUDIO
TITLE "Sippuro Shel Shed"
PERFORMER "The Cracow Klezmer Band"
INDEX 01 00:00:00
TRACK 06 AUDIO
TITLE "Holef"
PERFORMER "The Cracow Klezmer Band"
INDEX 00 03:06:10
FILE "06 - Holef.wav" WAVE
INDEX 01 00:00:00
FILE "07 - 'Otsmat.wav" WAVE
TRACK 07 AUDIO
TITLE "'Otsmat"
PERFORMER "The Cracow Klezmer Band"
INDEX 01 00:00:00
FILE "08 - Bereshit.wav" WAVE
TRACK 08 AUDIO
TITLE "Bereshit"
PERFORMER "The Cracow Klezmer Band"
INDEX 01 00:00:00
Доп. информация: Recorded February 2003 at Studio 2002 except « Bereshit » at Tempel Synagogue, Krakow, Poland.
 
Состав
Jarosław Tyrała – Violin
Jarosław Bester – Bayan
Oleg Dyyak – Bayan, Clarinet, Percussion
Wojciech Front – Double Bass
Special guest
Grażina Augus̀cik – Vocal
10:09
276
Нет комментариев. Ваш будет первым!