Поиск

(Bossa-nova, Contemporary Jazz, Modern Jazz, World) Jun Miyake - Glam Exotica! - 1999, FLAC (tracks+.cue), lossless

(Bossa-nova, Contemporary Jazz, Modern Jazz, World) Jun Miyake - Glam Exotica! - 1999, FLAC (tracks+.cue), lossless
Треклист:
Jun Miyake / Glam Exotica!
Жанр: Bossa-nova, Contemporary Jazz, Modern Jazz, World
Страна-производитель диска: Germany
Год издания: 2003
Издатель (лейбл): Tropical Music
Номер по каталогу: 68.827
Страна: Japan
Аудиокодек: FLAC (*.flac)
Тип рипа: tracks+.cue
Битрейт аудио: lossless
Продолжительность: 56:44
Источник: what.cd
Наличие сканов в содержимом раздачи: нет
Треклист:
01. Rain Forest [5:03]
02. Lotus Isle [5:20]
03. River Of Gold [6:19]
04. Mosquito Path [4:47]
05. Gnossienne #1 [5:51]
06. Pico Birds [5:34]
07. Lost Honeymoon [3:56]
08. Brazil [4:47]
09. Stones Bearing Flowers [5:50]
10. Lokasa [3:14]
11. Raft Of Love [4:40]
12. Postcard ! [1:24]
 
Лог создания рипа
Exact Audio Copy V1.0 beta 3 from 29. August 2011
EAC extraction logfile from 30. September 2012, 21:50
Jun Miyake / Glam Exotica!
Used drive : SlimtypeeSAU108 8 Adapter: 5 ID: 0
Read mode : Secure
Utilize accurate stream : Yes
Defeat audio cache : Yes
Make use of C2 pointers : No
Read offset correction : 6
Overread into Lead-In and Lead-Out : No
Fill up missing offset samples with silence : Yes
Delete leading and trailing silent blocks : No
Null samples used in CRC calculations : Yes
Used interface : Native Win32 interface for Win NT & 2000
Gap handling : Appended to previous track
Used output format : User Defined Encoder
Selected bitrate : 1024 kBit/s
Quality : High
Add ID3 tag : No
Command line compressor : C:\Program Files\Exact Audio Copy\Flac\flac.exe
Additional command line options : -8 -V -T "ARTIST=%artist%" -T "TITLE=%title%" -T "ALBUM=%albumtitle%" -T "DATE=%year%" -T "TRACKNUMBER=%tracknr%" -T "GENRE=%genre%" -T "PERFORMER=%albuminterpret%" -T "COMPOSER=%composer%" %haslyrics%--tag-from-file=LYRICS="%lyricsfile%"%haslyrics% -T "ALBUMARTIST=%albumartist%" -T "DISCNUMBER=%cdnumber%" -T "TOTALDISCS=%totalcds%" -T "TOTALTRACKS=%numtracks%" -T "COMMENT=%comment%" %source% -o %dest%
TOC of the extracted CD
Track | Start | Length | Start sector | End sector
---------------------------------------------------------
1 | 0:00.00 | 5:03.17 | 0 | 22741
2 | 5:03.17 | 5:19.55 | 22742 | 46721
3 | 10:22.72 | 6:18.58 | 46722 | 75129
4 | 16:41.55 | 4:47.22 | 75130 | 96676
5 | 21:29.02 | 5:51.00 | 96677 | 123001
6 | 27:20.02 | 5:33.45 | 123002 | 148021
7 | 32:53.47 | 3:55.45 | 148022 | 165691
8 | 36:49.17 | 4:47.00 | 165692 | 187216
9 | 41:36.17 | 5:49.68 | 187217 | 213459
10 | 47:26.10 | 3:13.62 | 213460 | 227996
11 | 50:39.72 | 4:40.08 | 227997 | 249004
12 | 55:20.05 | 1:23.50 | 249005 | 255279
Track 1
Filename E:\_MUSIC ALL\Jun Miyake - Glam Exotica! (2003) [FLAC]\01 - Rain Forest.wav
Pre-gap length 0:00:02.00
Peak level 99.8 %
Extraction speed 1.2 X
Track quality 100.0 %
Test CRC 1A991569
Copy CRC 1A991569
Accurately ripped (confidence 3) [451EB479] (AR v1)
Copy OK
Track 2
Filename E:\_MUSIC ALL\Jun Miyake - Glam Exotica! (2003) [FLAC]\02 - Lotus Isle.wav
Peak level 99.8 %
Extraction speed 1.3 X
Track quality 100.0 %
Test CRC C9928F46
Copy CRC C9928F46
Accurately ripped (confidence 3) [479126D8] (AR v1)
Copy OK
Track 3
Filename E:\_MUSIC ALL\Jun Miyake - Glam Exotica! (2003) [FLAC]\03 - River of Gold.wav
Pre-gap length 0:00:01.00
Peak level 92.9 %
Extraction speed 1.5 X
Track quality 100.0 %
Test CRC 3F7A72D1
Copy CRC 3F7A72D1
Accurately ripped (confidence 3) [F320E262] (AR v1)
Copy OK
Track 4
Filename E:\_MUSIC ALL\Jun Miyake - Glam Exotica! (2003) [FLAC]\04 - Mosquito Path.wav
Peak level 99.8 %
Extraction speed 1.6 X
Track quality 100.0 %
Test CRC 77C8B2B5
Copy CRC 77C8B2B5
Accurately ripped (confidence 3) [844D6489] (AR v1)
Copy OK
Track 5
Filename E:\_MUSIC ALL\Jun Miyake - Glam Exotica! (2003) [FLAC]\05 - Gnossienne #1.wav
Pre-gap length 0:00:02.60
Peak level 99.8 %
Extraction speed 1.8 X
Track quality 100.0 %
Test CRC 975323C6
Copy CRC 975323C6
Accurately ripped (confidence 3) [A1DA9F24] (AR v1)
Copy OK
Track 6
Filename E:\_MUSIC ALL\Jun Miyake - Glam Exotica! (2003) [FLAC]\06 - Pico Birds.wav
Peak level 99.8 %
Extraction speed 1.9 X
Track quality 100.0 %
Test CRC B0E6EF93
Copy CRC B0E6EF93
Accurately ripped (confidence 3) [F9AB16B1] (AR v1)
Copy OK
Track 7
Filename E:\_MUSIC ALL\Jun Miyake - Glam Exotica! (2003) [FLAC]\07 - Lost Honeymoon.wav
Peak level 99.8 %
Extraction speed 1.9 X
Track quality 100.0 %
Test CRC 176187D4
Copy CRC 176187D4
Accurately ripped (confidence 3) [4FA7CD81] (AR v1)
Copy OK
Track 8
Filename E:\_MUSIC ALL\Jun Miyake - Glam Exotica! (2003) [FLAC]\08 - Brazil.wav
Peak level 99.4 %
Extraction speed 2.0 X
Track quality 100.0 %
Test CRC 9C9760A9
Copy CRC 9C9760A9
Accurately ripped (confidence 3) [CD5C3AA8] (AR v1)
Copy OK
Track 9
Filename E:\_MUSIC ALL\Jun Miyake - Glam Exotica! (2003) [FLAC]\09 - Stones bearing Flowers.wav
Peak level 99.8 %
Extraction speed 2.0 X
Track quality 99.9 %
Test CRC D45E76A8
Copy CRC D45E76A8
Accurately ripped (confidence 3) [7B480B4C] (AR v1)
Copy OK
Track 10
Filename E:\_MUSIC ALL\Jun Miyake - Glam Exotica! (2003) [FLAC]\10 - Lokasa.wav
Pre-gap length 0:00:01.37
Peak level 94.7 %
Extraction speed 2.1 X
Track quality 100.0 %
Test CRC 85647B10
Copy CRC 85647B10
Accurately ripped (confidence 3) [1993BDF1] (AR v1)
Copy OK
Track 11
Filename E:\_MUSIC ALL\Jun Miyake - Glam Exotica! (2003) [FLAC]\11 - Raft of Love.wav
Peak level 99.8 %
Extraction speed 0.3 X
Track quality 100.0 %
Test CRC 27386F10
Copy CRC 27386F10
Accurately ripped (confidence 3) [21511212] (AR v1)
Copy OK
Track 12
Filename E:\_MUSIC ALL\Jun Miyake - Glam Exotica! (2003) [FLAC]\12 - Postcard !.wav
Pre-gap length 0:00:01.90
Peak level 99.8 %
Extraction speed 1.4 X
Track quality 99.8 %
Test CRC 14B93C1F
Copy CRC 14B93C1F
Accurately ripped (confidence 3) [F9839C4A] (AR v1)
Copy OK
All tracks accurately ripped
No errors occurred
End of status report
==== Log checksum C530AD5045C38B54583701440B90957531316A71B4F63A7BBA459E54E6563848 ====
 
Содержание индексной карты (.CUE)
REM GENRE Jazz
REM DATE 2003
REM DISCID 8F0D4B0C
REM COMMENT "ExactAudioCopy v1.0b3"
PERFORMER "Jun Miyake"
TITLE "Glam Exotica!"
FILE "01 - Rain Forest.wav" WAVE
TRACK 01 AUDIO
TITLE "Rain Forest"
PERFORMER "Jun Miyake"
INDEX 01 00:00:00
FILE "02 - Lotus Isle.wav" WAVE
TRACK 02 AUDIO
TITLE "Lotus Isle"
PERFORMER "Jun Miyake"
INDEX 01 00:00:00
TRACK 03 AUDIO
TITLE "River of Gold"
PERFORMER "Jun Miyake"
INDEX 00 05:18:55
FILE "03 - River of Gold.wav" WAVE
INDEX 01 00:00:00
FILE "04 - Mosquito Path.wav" WAVE
TRACK 04 AUDIO
TITLE "Mosquito Path"
PERFORMER "Jun Miyake"
INDEX 01 00:00:00
TRACK 05 AUDIO
TITLE "Gnossienne #1"
PERFORMER "Jun Miyake"
INDEX 00 04:44:52
FILE "05 - Gnossienne #1.wav" WAVE
INDEX 01 00:00:00
FILE "06 - Pico Birds.wav" WAVE
TRACK 06 AUDIO
TITLE "Pico Birds"
PERFORMER "Jun Miyake"
INDEX 01 00:00:00
FILE "07 - Lost Honeymoon.wav" WAVE
TRACK 07 AUDIO
TITLE "Lost Honeymoon"
PERFORMER "Jun Miyake"
INDEX 01 00:00:00
FILE "08 - Brazil.wav" WAVE
TRACK 08 AUDIO
TITLE "Brazil"
PERFORMER "Jun Miyake"
INDEX 01 00:00:00
FILE "09 - Stones bearing Flowers.wav" WAVE
TRACK 09 AUDIO
TITLE "Stones bearing Flowers"
PERFORMER "Jun Miyake"
INDEX 01 00:00:00
TRACK 10 AUDIO
TITLE "Lokasa"
PERFORMER "Jun Miyake"
INDEX 00 05:48:40
FILE "10 - Lokasa.wav" WAVE
INDEX 01 00:00:00
FILE "11 - Raft of Love.wav" WAVE
TRACK 11 AUDIO
TITLE "Raft of Love"
PERFORMER "Jun Miyake"
INDEX 01 00:00:00
TRACK 12 AUDIO
TITLE "Postcard !"
PERFORMER "Jun Miyake"
INDEX 00 04:38:15
FILE "12 - Postcard !.wav" WAVE
INDEX 01 00:00:00
10:11
282
Нет комментариев. Ваш будет первым!