Поиск

(Bossa Nova) [CD] Luiz Carlos Vinhas - Novas Estruturas - 1964 (2006 Japan Edition), FLAC (tracks+.cue), lossless

(Bossa Nova) [CD] Luiz Carlos Vinhas - Novas Estruturas - 1964 (2006 Japan Edition), FLAC (tracks+.cue), lossless
Треклист:
Luiz Carlos Vinhas - Novas Estruturas
Жанр: Bossa Nova
Носитель: CD
Страна-производитель диска (релиза): Япония
Год издания: 2006
Издатель (лейбл): Bomba Records
Номер по каталогу: BOM24068
Страна исполнителя (группы): Бразилия
Аудиокодек: FLAC (*.flac)
Тип рипа: tracks+.cue
Битрейт аудио: lossless
Продолжительность: 34:04
Источник (релизер): ukasoy (what)
Наличие сканов в содержимом раздачи: нет
Треклист:
01. Curta Metragem (Einhorn-Costa) - 2:52
02. Reza (Lobo-Guerra) - 3:05
03. Tempo (Vinhas) - 2:16
04. Primavera (Lyra-De Moraes) - 3:14
05. Mas, Que Nada! (Ben) - 2:19
06. Nem O Mar Sabia (Menescal-Boscoli) - 3:27
07. Aboio (Meirelles) - 2:47
08. Inutil Paisagem (Jobim-De Oliveira) - 5:16
09. Batucada (Pessoa) - 2:36
10. Pensativa (Fischer) - 3:00
11. Ad Vinhas (Einhorn-Costa) - 3:12
 
Лог создания рипа
Exact Audio Copy V1.0 beta 3 from 29. August 2011
EAC extraction logfile from 12. September 2016, 19:18
Luiz Carlos Vinhas / Novas Estruturas
Used drive : HL-DT-STDVDRAM GH24NS50 Adapter: 5 ID: 0
Read mode : Secure
Utilize accurate stream : Yes
Defeat audio cache : Yes
Make use of C2 pointers : No
Read offset correction : 667
Overread into Lead-In and Lead-Out : No
Fill up missing offset samples with silence : Yes
Delete leading and trailing silent blocks : No
Null samples used in CRC calculations : Yes
Used interface : Native Win32 interface for Win NT & 2000
Gap handling : Appended to previous track
Used output format : User Defined Encoder
Selected bitrate : 1024 kBit/s
Quality : High
Add ID3 tag : No
Command line compressor : C:\Program Files (x86)\Exact Audio Copy\FLAC\FLAC.EXE
Additional command line options : -8 -V -T "ARTIST=%artist%" -T "TITLE=%title%" -T "ALBUM=%albumtitle%" -T "DATE=%year%" -T "TRACKNUMBER=%tracknr%" -T "GENRE=%genre%" -T "PERFORMER=%albuminterpret%" -T "COMPOSER=%composer%" %haslyrics%--tag-from-file=LYRICS="%lyricsfile%"%haslyrics% -T "ALBUMARTIST=%albumartist%" -T "DISCNUMBER=%cdnumber%" -T "TOTALDISCS=%totalcds%" -T "TOTALTRACKS=%numtracks%" -T "COMMENT=%comment%" %source% -o %dest%
TOC of the extracted CD
Track | Start | Length | Start sector | End sector
---------------------------------------------------------
1 | 0:00.00 | 2:52.15 | 0 | 12914
2 | 2:52.15 | 3:05.35 | 12915 | 26824
3 | 5:57.50 | 2:15.72 | 26825 | 37021
4 | 8:13.47 | 3:14.12 | 37022 | 51583
5 | 11:27.59 | 2:18.49 | 51584 | 61982
6 | 13:46.33 | 3:26.46 | 61983 | 77478
7 | 17:13.04 | 2:47.16 | 77479 | 90019
8 | 20:00.20 | 5:15.61 | 90020 | 113705
9 | 25:16.06 | 2:35.65 | 113706 | 125395
10 | 27:51.71 | 3:00.34 | 125396 | 138929
11 | 30:52.30 | 3:11.45 | 138930 | 153299
Track 1
Filename K:\EAC\01 - Curta Metragem.wav
Pre-gap length 0:00:02.00
Peak level 99.7 %
Extraction speed 1.1 X
Track quality 100.0 %
Test CRC 8073141A
Copy CRC 8073141A
Accurately ripped (confidence 1) [507FADE5] (AR v2)
Copy OK
Track 2
Filename K:\EAC\02 - Reza.wav
Peak level 99.7 %
Extraction speed 1.2 X
Track quality 100.0 %
Test CRC 5CCE0924
Copy CRC 5CCE0924
Accurately ripped (confidence 1) [A5B55E1D] (AR v2)
Copy OK
Track 3
Filename K:\EAC\03 - Tempo.wav
Peak level 99.6 %
Extraction speed 1.2 X
Track quality 100.0 %
Test CRC 8EF4D9C8
Copy CRC 8EF4D9C8
Accurately ripped (confidence 1) [AABF8E05] (AR v2)
Copy OK
Track 4
Filename K:\EAC\04 - Primavera.wav
Peak level 99.7 %
Extraction speed 1.4 X
Track quality 100.0 %
Test CRC 33C7B51F
Copy CRC 33C7B51F
Accurately ripped (confidence 1) [18CB1BB5] (AR v2)
Copy OK
Track 5
Filename K:\EAC\05 - Mas, Que Nada.wav
Peak level 99.0 %
Extraction speed 1.3 X
Track quality 100.0 %
Test CRC 9E1A5B16
Copy CRC 9E1A5B16
Accurately ripped (confidence 1) [52DC77B4] (AR v2)
Copy OK
Track 6
Filename K:\EAC\06 - Nem O Mar Sabia.wav
Peak level 99.7 %
Extraction speed 1.6 X
Track quality 100.0 %
Test CRC 8C0164D1
Copy CRC 8C0164D1
Accurately ripped (confidence 1) [5FC73D50] (AR v2)
Copy OK
Track 7
Filename K:\EAC\07 - Aboio.wav
Peak level 99.7 %
Extraction speed 1.5 X
Track quality 100.0 %
Test CRC 9C7BB094
Copy CRC 9C7BB094
Accurately ripped (confidence 1) [B5097307] (AR v2)
Copy OK
Track 8
Filename K:\EAC\08 - Inútil Paisagem.wav
Peak level 94.1 %
Extraction speed 1.8 X
Track quality 100.0 %
Test CRC 79C8D4A4
Copy CRC 79C8D4A4
Accurately ripped (confidence 1) [F5B73F2F] (AR v2)
Copy OK
Track 9
Filename K:\EAC\09 - Batucada.wav
Peak level 99.7 %
Extraction speed 1.7 X
Track quality 100.0 %
Test CRC 73FE77F5
Copy CRC 73FE77F5
Accurately ripped (confidence 1) [25752C2C] (AR v2)
Copy OK
Track 10
Filename K:\EAC\10 - Pensativa.wav
Peak level 99.7 %
Extraction speed 1.8 X
Track quality 100.0 %
Test CRC 638AF83D
Copy CRC 638AF83D
Accurately ripped (confidence 1) [BE2D3B3C] (AR v2)
Copy OK
Track 11
Filename K:\EAC\11 - AD Vinhas.wav
Peak level 97.4 %
Extraction speed 1.7 X
Track quality 99.9 %
Test CRC F5A23574
Copy CRC F5A23574
Accurately ripped (confidence 1) [BA4FCA53] (AR v2)
Copy OK
All tracks accurately ripped
No errors occurred
End of status report
==== Log checksum 8287C7736D4AE430F368FB3A5A60D5A728A9AAF79816A64DD1454CEF3894C5D6 ====
 
Содержание индексной карты (.CUE)
REM GENRE Jazz
REM DATE 1964
REM DISCID 9A07FC0B
REM COMMENT "ExactAudioCopy v1.0b3"
PERFORMER "Luiz Carlos Vinhas"
TITLE "Novas Estruturas"
FILE "01 - Curta Metragem.wav" WAVE
TRACK 01 AUDIO
TITLE "Curta Metragem"
PERFORMER "Luiz Carlos Vinhas"
INDEX 01 00:00:00
FILE "02 - Reza.wav" WAVE
TRACK 02 AUDIO
TITLE "Reza"
PERFORMER "Luiz Carlos Vinhas"
INDEX 01 00:00:00
FILE "03 - Tempo.wav" WAVE
TRACK 03 AUDIO
TITLE "Tempo"
PERFORMER "Luiz Carlos Vinhas"
INDEX 01 00:00:00
FILE "04 - Primavera.wav" WAVE
TRACK 04 AUDIO
TITLE "Primavera"
PERFORMER "Luiz Carlos Vinhas"
INDEX 01 00:00:00
FILE "05 - Mas, Que Nada!.wav" WAVE
TRACK 05 AUDIO
TITLE "Mas, Que Nada!"
PERFORMER "Luiz Carlos Vinhas"
INDEX 01 00:00:00
FILE "06 - Nem O Mar Sabia.wav" WAVE
TRACK 06 AUDIO
TITLE "Nem O Mar Sabia"
PERFORMER "Luiz Carlos Vinhas"
INDEX 01 00:00:00
FILE "07 - Aboio.wav" WAVE
TRACK 07 AUDIO
TITLE "Aboio"
PERFORMER "Luiz Carlos Vinhas"
INDEX 01 00:00:00
FILE "08 - Inutil Paisagem.wav" WAVE
TRACK 08 AUDIO
TITLE "Inutil Paisagem"
PERFORMER "Luiz Carlos Vinhas"
INDEX 01 00:00:00
FILE "09 - Batucada.wav" WAVE
TRACK 09 AUDIO
TITLE "Batucada"
PERFORMER "Luiz Carlos Vinhas"
INDEX 01 00:00:00
FILE "10 - Pensativa.wav" WAVE
TRACK 10 AUDIO
TITLE "Pensativa"
PERFORMER "Luiz Carlos Vinhas"
INDEX 01 00:00:00
FILE "11 - Ad Vinhas.wav" WAVE
TRACK 11 AUDIO
TITLE "Ad Vinhas"
PERFORMER "Luiz Carlos Vinhas"
INDEX 01 00:00:00
 
Отчет CUETools
[CUETools log; Date: 16.11.2016 20:45:58; Version: 2.1.5]
[CTDB TOCID: zO0I3na3_qMk5M6k73nzzF4VL0w-] disk not present in database.
[AccurateRip ID: 000d9148-0076e4fd-9a07fc0b] found.
Track [ CRC | V2 ] Status
01 [3ced2f5a|507fade5] (0+1/1) Accurately ripped
02 [d6cb9643|a5b55e1d] (0+1/1) Accurately ripped
03 [fd1352d8|aabf8e05] (0+1/1) Accurately ripped
04 [cabb2214|18cb1bb5] (0+1/1) Accurately ripped
05 [5185b34f|52dc77b4] (0+1/1) Accurately ripped
06 [1e16227c|5fc73d50] (0+1/1) Accurately ripped
07 [38169dd9|b5097307] (0+1/1) Accurately ripped
08 [bd075177|f5b73f2f] (0+1/1) Accurately ripped
09 [2ece2438|25752c2c] (0+1/1) Accurately ripped
10 [b0b9b252|be2d3b3c] (0+1/1) Accurately ripped
11 [c69fe262|ba4fca53] (0+1/1) Accurately ripped
Track Peak [ CRC32 ] [W/O NULL] [ LOG ]
-- 99,7 [21A01090] [34C50363]
01 99,7 [8073141A] [6D31E57C] CRC32
02 99,7 [5CCE0924] [195250F8] CRC32
03 99,6 [8EF4D9C8] [DA3E0372] CRC32
04 99,7 [33C7B51F] [4C49A98A] CRC32
05 99,0 [9E1A5B16] [6AC5AFB6] CRC32
06 99,7 [8C0164D1] [CE858247] CRC32
07 99,7 [9C7BB094] [E8E71E8E] CRC32
08 94,1 [79C8D4A4] [2F3238A3] CRC32
09 99,7 [73FE77F5] [1FFB8436] CRC32
10 99,7 [638AF83D] [3901766B] CRC32
11 97,4 [F5A23574] [B3E80E2C] CRC32
 
Состав
Luiz Carlos Vinhas - piano
Octavio Bailly, Zezinho, Luiz Marinho - bass
Edison Machado, Ronald - drums
Pedro Paulo, Hamilton - trumpet
Edson Maciel, Raul de Souza, Edmundo Maciel - trombone
Jorge Ferreira da Silva - alto saxophone, flute
Paulo Moura - alto saxophone
Sandoval - tenor saxophone
Aurino - barítone saxophone, clarinet
J.T. Meirelles - flute
Waltel Branco - guitar
Mauricio Einhorn - harmonica
Recorded at RCA Victor Studios on August 7-11, 1964.
22:30
296
Нет комментариев. Ваш будет первым!