Поиск

(MPB, Latin Jazz, Bossa Nova, Samba) [CD] Som Tres - Som/3 - 1966 (2006), FLAC (tracks+.cue), lossless

(MPB, Latin Jazz, Bossa Nova, Samba) [CD] Som Tres - Som/3 - 1966 (2006), FLAC (tracks+.cue), lossless
Треклист:
Som Tres - Som/3
Жанр: MPB, Latin Jazz, Bossa Nova, Samba
Носитель: CD
Страна-производитель диска (релиза): Бразилия
Год издания: 1966 (2006)
Издатель (лейбл): Som Livre
Номер по каталогу: 0238 2
Аудиокодек: FLAC (*.flac)
Тип рипа: tracks+.cue
Битрейт аудио: lossless
Продолжительность: 34:28
Источник (релизер): Flabber
Наличие сканов в содержимом раздачи: да
Треклист:
01. Samblues (Mariano) - 5:19
02. Canto de Ossanha (Powell-De Moraes) - 3:11
03. Na Baixa do Sapateiro (Barroso) - 3:49
04. O Bolo (Santos-Souza) - 3:45
05. Um Minuto (Saba-Antoninho) - 2:16
06. Cidade Vazia (Powell-Freire) - 1:02
07. Deixa pra La (Augusto-Freire) - 2:36
08. Tema 3 (Mariano) - 2:32
09. Cristina (Mariano) - 3:39
10. O Morro Nao Tem Vez (Jobim-De Moraes) - 3:18
11. Margarida B (Mariano) - 3:01
Состав:
Cesar Camargo Mariano - piano
Sebastiao Oliveira da Paz (Saba) - bass
Antonio Pinheiro - drums
 
Лог создания рипа
EAC extraction logfile from 14. December 2010, 21:17 for CD
Som3 / Som3
Used drive : PLEXTOR DVDR PX-880SA Adapter: 0 ID: 0
Read mode : Secure with NO C2, accurate stream, disable cache
Read offset correction : 6
Overread into Lead-In and Lead-Out : No
Used output format : C:\Program Files (x86)\Exact Audio Copy\FLAC\FLAC.EXE (User Defined Encoder)
Additional command line options : -8 -V -T "ARTIST=%a" -T "TITLE=%t" -T "ALBUM=%g" -T "DATE=%y" -T "TRACKNUMBER=%n" -T "TOTALTRACKS=%x" -T "GENRE=%m" -T "ALBUM ARTIST=%v" -T "ALBUMARTIST=%v" -T "COMMENT=EAC V0.99 prebeta 5, Secure Mode,
Other options :
Fill up missing offset samples with silence : Yes
Delete leading and trailing silent blocks : No
Native Win32 interface for Win NT & 2000
Track 1
Filename D:\01 - Samblues.wav
Pre-gap length 0:00:02.00
Peak level 99.9 %
Track quality 99.9 %
Test CRC 41945846
Copy CRC 41945846
Copy OK
Track 2
Filename D:\02 - Canto De Ossanha.wav
Pre-gap length 0:00:01.69
Peak level 100.0 %
Track quality 100.0 %
Test CRC 1B364DD4
Copy CRC 1B364DD4
Copy OK
Track 3
Filename D:\03 - Na Baixa Do Sapateiro.wav
Pre-gap length 0:00:02.06
Peak level 100.0 %
Track quality 100.0 %
Test CRC 263669FB
Copy CRC 263669FB
Copy OK
Track 4
Filename D:\04 - O Bolo.wav
Pre-gap length 0:00:01.73
Peak level 90.8 %
Track quality 100.0 %
Test CRC 8C8CAB02
Copy CRC 8C8CAB02
Copy OK
Track 5
Filename D:\05 - Um Minuto.wav
Pre-gap length 0:00:02.06
Peak level 96.5 %
Track quality 100.0 %
Test CRC E2704DA1
Copy CRC E2704DA1
Copy OK
Track 6
Filename D:\06 - Cidade Vazia.wav
Pre-gap length 0:00:02.06
Peak level 96.5 %
Track quality 100.0 %
Test CRC 81ED0B73
Copy CRC 81ED0B73
Copy OK
Track 7
Filename D:\07 - Deixa Pra La.wav
Pre-gap length 0:00:02.06
Peak level 96.5 %
Track quality 100.0 %
Test CRC 6D473BA2
Copy CRC 6D473BA2
Copy OK
Track 8
Filename D:\08 - Tema 3.wav
Pre-gap length 0:00:02.06
Peak level 96.5 %
Track quality 100.0 %
Test CRC 21E9333A
Copy CRC 21E9333A
Copy OK
Track 9
Filename D:\09 - Cristina.wav
Pre-gap length 0:00:02.06
Peak level 100.0 %
Track quality 100.0 %
Test CRC 6509318F
Copy CRC 6509318F
Copy OK
Track 10
Filename D:\10 - O Morro Nao Tem Vez.wav
Pre-gap length 0:00:02.06
Peak level 97.2 %
Track quality 100.0 %
Test CRC 9D38CFA6
Copy CRC 9D38CFA6
Copy OK
Track 11
Filename D:\11 - Margarida B.wav
Pre-gap length 0:00:02.06
Peak level 94.5 %
Track quality 100.0 %
Test CRC 2DF9C782
Copy CRC 2DF9C782
Copy OK
No errors occured
End of status report
 
Содержание индексной карты (.CUE)
REM GENRE Jazz
REM DATE 1966
REM DISCID 8508140B
REM COMMENT "ExactAudioCopy v0.95b4"
PERFORMER "Som Tres"
TITLE "Som/3"
FILE "01 - Samblues.wav" WAVE
TRACK 01 AUDIO
TITLE "Samblues"
PERFORMER "Som Tres"
INDEX 01 00:00:00
TRACK 02 AUDIO
TITLE "Canto de Ossanha"
PERFORMER "Som Tres"
INDEX 00 05:17:30
FILE "02 - Canto de Ossanha.wav" WAVE
INDEX 01 00:00:00
TRACK 03 AUDIO
TITLE "Na Baixa do Sapateiro"
PERFORMER "Som Tres"
INDEX 00 03:08:55
FILE "03 - Na Baixa do Sapateiro.wav" WAVE
INDEX 01 00:00:00
TRACK 04 AUDIO
TITLE "O Bolo"
PERFORMER "Som Tres"
INDEX 00 03:47:18
FILE "04 - O Bolo.wav" WAVE
INDEX 01 00:00:00
TRACK 05 AUDIO
TITLE "Um Minuto"
PERFORMER "Som Tres"
INDEX 00 03:42:67
FILE "05 - Um Minuto.wav" WAVE
INDEX 01 00:00:00
TRACK 06 AUDIO
TITLE "Cidade Vazia"
PERFORMER "Som Tres"
INDEX 00 02:14:13
FILE "06 - Cidade Vazia.wav" WAVE
INDEX 01 00:00:00
TRACK 07 AUDIO
TITLE "Deixa pra La"
PERFORMER "Som Tres"
INDEX 00 01:00:20
FILE "07 - Deixa pra La.wav" WAVE
INDEX 01 00:00:00
TRACK 08 AUDIO
TITLE "Tema 3"
PERFORMER "Som Tres"
INDEX 00 02:33:37
FILE "08 - Tema 3.wav" WAVE
INDEX 01 00:00:00
TRACK 09 AUDIO
TITLE "Cristina"
PERFORMER "Som Tres"
INDEX 00 02:30:20
FILE "09 - Cristina.wav" WAVE
INDEX 01 00:00:00
TRACK 10 AUDIO
TITLE "O Morro Nao Tem Vez"
PERFORMER "Som Tres"
INDEX 00 03:37:28
FILE "10 - O Morro Nao Tem Vez.wav" WAVE
INDEX 01 00:00:00
TRACK 11 AUDIO
TITLE "Margarida B"
PERFORMER "Som Tres"
INDEX 00 03:15:65
FILE "11 - Margarida B.wav" WAVE
INDEX 01 00:00:00
 
Отчет CUETools
[CUETools log; Date: 16.11.2016 21:11:23; Version: 2.1.5]
[CTDB TOCID: X6DS8nZzgxtm29LIWK0obiHmxIg-] found.
Track | CTDB Status
1 | (1/1) Accurately ripped
2 | (1/1) Accurately ripped
3 | (1/1) Accurately ripped
4 | (1/1) Accurately ripped
5 | (1/1) Accurately ripped
6 | (1/1) Accurately ripped
7 | (1/1) Accurately ripped
8 | (1/1) Accurately ripped
9 | (1/1) Accurately ripped
10 | (1/1) Accurately ripped
11 | (1/1) Accurately ripped
[AccurateRip ID: 000f236f-007ef551-8508140b] found.
Track [ CRC | V2 ] Status
01 [09a6f029|bce49bc5] (4+3/7) Accurately ripped
02 [1c489134|5d2713fc] (4+3/7) Accurately ripped
03 [c5209351|a915ab62] (4+3/7) Accurately ripped
04 [5060f7a6|c1686410] (4+3/7) Accurately ripped
05 [0af99a28|5c8f8cb9] (4+3/7) Accurately ripped
06 [d9e833b2|7982490a] (4+3/7) Accurately ripped
07 [78dd1d02|0ae09724] (4+3/7) Accurately ripped
08 [2c7c6a7d|c178a6e9] (4+3/7) Accurately ripped
09 [c2019ed1|82d4b919] (4+3/7) Accurately ripped
10 [03a7f74d|21f2d5b1] (4+3/7) Accurately ripped
11 [09acf855|e6b21b82] (4+3/7) Accurately ripped
Track Peak [ CRC32 ] [W/O NULL] [ LOG ]
-- 100,0 [DB0B80A7] [85764A6D]
01 99,9 [41945846] [4F64D9F8] CRC32
02 100,0 [1B364DD4] [0F446F45] CRC32
03 100,0 [263669FB] [90290EA0] CRC32
04 90,8 [8C8CAB02] [C2AC31DE] CRC32
05 96,5 [E2704DA1] [451DFC53] CRC32
06 96,5 [81ED0B73] [C50411B1] CRC32
07 96,5 [6D473BA2] [99311A04] CRC32
08 96,5 [21E9333A] [684DAB2E] CRC32
09 100,0 [6509318F] [AC5EDCBE] CRC32
10 97,2 [9D38CFA6] [333C7D2A] CRC32
11 94,5 [2DF9C782] [CC551AB4] CRC32
Взамен ушедшей в архив.
22:30
387
Нет комментариев. Ваш будет первым!