Поиск

(Brazilian Jazz, World Fusion) [CD] Egberto Gismonti - Sonho 70 - 1970 (2004 Japan Edition), FLAC (tracks+.cue), lossless

(Brazilian Jazz, World Fusion) [CD] Egberto Gismonti - Sonho 70 - 1970 (2004 Japan Edition), FLAC (tracks+.cue), lossless
Треклист:
Egberto Gismonti - Sonho 70
Жанр: Brazilian Jazz, World Fusion
Носитель: CD
Страна-производитель диска (релиза): Япония
Год издания: 1970 (2004)
Издатель (лейбл): Bomba Records
Номер по каталогу: BOM24011
Страна исполнителя (группы): Бразилия
Аудиокодек: FLAC (*.flac)
Тип рипа: tracks+.cue
Битрейт аудио: lossless
Продолжительность: 32:58
Источник (релизер): ukasoy (what)
Наличие сканов в содержимом раздачи: нет
Треклист:
01. Janela de Ouro (Gismonti) - 4:40
02. Parque Laje (Gismonti) - 2:21
03. Ciclone (Gismonti-Medeiros) - 2:34
04. Indi (Gismonti-Medeiros) - 4:27
05. Sonho (Gismonti) - 2:26
06. O Mercador de Serpentes (Gismonti) - 3:48
07. Lendas (Gismonti-Tapajos) - 3:01
08. Pendulo (Gismonti) - 4:19
09. Lirica No.1 (Gismonti) - 5:22
Состав:
Egberto Gismonti - piano, guitar, vocals
Dulce Nunes - vocals
with orchestra
 
Лог создания рипа
Exact Audio Copy V1.0 beta 3 from 29. August 2011
EAC extraction logfile from 28. November 2013, 13:17
Egberto Gismonti / Sonho 70
Used drive : HL-DT-STDVDRAM GH24NS50 Adapter: 2 ID: 5
Read mode : Secure
Utilize accurate stream : Yes
Defeat audio cache : Yes
Make use of C2 pointers : No
Read offset correction : 667
Overread into Lead-In and Lead-Out : No
Fill up missing offset samples with silence : Yes
Delete leading and trailing silent blocks : No
Null samples used in CRC calculations : Yes
Used interface : Native Win32 interface for Win NT & 2000
Gap handling : Appended to previous track
Used output format : User Defined Encoder
Selected bitrate : 1024 kBit/s
Quality : High
Add ID3 tag : Yes
Command line compressor : C:\Program Files (x86)\FLAC\flac.exe
Additional command line options : -8 -V -T "ARTIST=%artist%" -T "TITLE=%title%" -T "ALBUM=%albumtitle%" -T "DATE=%year%" -T "TRACKNUMBER=%tracknr%" -T "GENRE=%genre%" -T "PERFORMER=%albuminterpret%" -T "COMPOSER=%composer%" %haslyrics%--tag-from-file=LYRICS="%lyricsfile%"%haslyrics% -T "ALBUMARTIST=%albumartist%" -T "DISCNUMBER=%cdnumber%" -T "TOTALDISCS=%totalcds%" -T "TOTALTRACKS=%numtracks%" -T "COMMENT=%comment%" %source% -o %dest%
TOC of the extracted CD
Track | Start | Length | Start sector | End sector
---------------------------------------------------------
1 | 0:00.00 | 4:40.37 | 0 | 21036
2 | 4:40.37 | 2:20.63 | 21037 | 31599
3 | 7:01.25 | 2:34.22 | 31600 | 43171
4 | 9:35.47 | 4:26.40 | 43172 | 63161
5 | 14:02.12 | 2:25.58 | 63162 | 74094
6 | 16:27.70 | 3:47.45 | 74095 | 91164
7 | 20:15.40 | 3:00.52 | 91165 | 104716
8 | 23:16.17 | 4:19.28 | 104717 | 124169
9 | 27:35.45 | 5:21.55 | 124170 | 148299
Track 1
Filename K:\EAC\Egberto Gismonti - Sonho 70 (1970)\01 Janela De Ouro.wav
Pre-gap length 0:00:02.00
Peak level 99.8 %
Extraction speed 0.9 X
Track quality 99.9 %
Test CRC 38AC50AA
Copy CRC 38AC50AA
Track not present in AccurateRip database
Copy OK
Track 2
Filename K:\EAC\Egberto Gismonti - Sonho 70 (1970)\02 Parque Laje.wav
Peak level 99.8 %
Extraction speed 1.0 X
Track quality 100.0 %
Test CRC 6A45FB95
Copy CRC 6A45FB95
Track not present in AccurateRip database
Copy OK
Track 3
Filename K:\EAC\Egberto Gismonti - Sonho 70 (1970)\03 Ciclone.wav
Peak level 99.8 %
Extraction speed 1.1 X
Track quality 100.0 %
Test CRC 000F71AE
Copy CRC 000F71AE
Track not present in AccurateRip database
Copy OK
Track 4
Filename K:\EAC\Egberto Gismonti - Sonho 70 (1970)\04 Indi.wav
Peak level 99.8 %
Extraction speed 1.3 X
Track quality 100.0 %
Test CRC BE4B380F
Copy CRC BE4B380F
Track not present in AccurateRip database
Copy OK
Track 5
Filename K:\EAC\Egberto Gismonti - Sonho 70 (1970)\05 Sonho.wav
Pre-gap length 0:00:00.70
Peak level 99.8 %
Extraction speed 1.0 X
Track quality 99.9 %
Test CRC 0C50FE90
Copy CRC 0C50FE90
Track not present in AccurateRip database
Copy OK
Track 6
Filename K:\EAC\Egberto Gismonti - Sonho 70 (1970)\06 O Mercador De Serpentes.wav
Pre-gap length 0:00:00.73
Peak level 99.8 %
Extraction speed 1.4 X
Track quality 100.0 %
Test CRC 98D9F2EA
Copy CRC 98D9F2EA
Track not present in AccurateRip database
Copy OK
Track 7
Filename K:\EAC\Egberto Gismonti - Sonho 70 (1970)\07 Lendas.wav
Peak level 99.8 %
Extraction speed 1.4 X
Track quality 100.0 %
Test CRC 219FFE39
Copy CRC 219FFE39
Track not present in AccurateRip database
Copy OK
Track 8
Filename K:\EAC\Egberto Gismonti - Sonho 70 (1970)\08 Pêndulo.wav
Peak level 99.8 %
Extraction speed 1.6 X
Track quality 100.0 %
Test CRC F76472BB
Copy CRC F76472BB
Track not present in AccurateRip database
Copy OK
Track 9
Filename K:\EAC\Egberto Gismonti - Sonho 70 (1970)\09 Lírica No.1.wav
Pre-gap length 0:00:00.68
Peak level 99.8 %
Extraction speed 1.6 X
Track quality 99.9 %
Test CRC FFAC479D
Copy CRC FFAC479D
Track not present in AccurateRip database
Copy OK
None of the tracks are present in the AccurateRip database
No errors occurred
End of status report
---- CUETools DB Plugin V2.1.3
[CTDB TOCID: Ed3Fcu6GuG_jOmlESfHB_z2_RdA-] disk not present in database, Submit result: Ed3Fcu6GuG_jOmlESfHB_z2_RdA- has been uploaded
==== Log checksum 0405B3C3668FF60E0DF770B741972497C6DA3A6960D94853F7B8F930519B6797 ====
 
Содержание индексной карты (.CUE)
REM GENRE Jazz
REM DATE 1970
REM DISCID 8707B909
REM COMMENT "ExactAudioCopy v1.0b3"
PERFORMER "Egberto Gismonti"
TITLE "Sonho 70"
FILE "01 - Janela de Ouro.wav" WAVE
TRACK 01 AUDIO
TITLE "Janela de Ouro"
PERFORMER "Egberto Gismonti"
INDEX 01 00:00:00
FILE "02 - Parque Laje.wav" WAVE
TRACK 02 AUDIO
TITLE "Parque Laje"
PERFORMER "Egberto Gismonti"
INDEX 01 00:00:00
FILE "03 - Ciclone.wav" WAVE
TRACK 03 AUDIO
TITLE "Ciclone"
PERFORMER "Egberto Gismonti"
INDEX 01 00:00:00
FILE "04 - Indi.wav" WAVE
TRACK 04 AUDIO
TITLE "Indi"
PERFORMER "Egberto Gismonti"
INDEX 01 00:00:00
TRACK 05 AUDIO
TITLE "Sonho"
PERFORMER "Egberto Gismonti"
INDEX 00 04:25:45
FILE "05 - Sonho.wav" WAVE
INDEX 01 00:00:00
TRACK 06 AUDIO
TITLE "O Mercador de Serpentes"
PERFORMER "Egberto Gismonti"
INDEX 00 02:24:60
FILE "06 - O Mercador de Serpentes.wav" WAVE
INDEX 01 00:00:00
FILE "07 - Lendas.wav" WAVE
TRACK 07 AUDIO
TITLE "Lendas"
PERFORMER "Egberto Gismonti"
INDEX 01 00:00:00
FILE "08 - Pendulo.wav" WAVE
TRACK 08 AUDIO
TITLE "Pendulo"
PERFORMER "Egberto Gismonti"
INDEX 01 00:00:00
TRACK 09 AUDIO
TITLE "Lirica No.1"
PERFORMER "Egberto Gismonti"
INDEX 00 04:18:35
FILE "09 - Lirica No.1.wav" WAVE
INDEX 01 00:00:00
 
Отчет CUETools
[CUETools log; Date: 16.11.2016 18:51:28; Version: 2.1.5]
[CTDB TOCID: Ed3Fcu6GuG_jOmlESfHB_z2_RdA-] found.
Track | CTDB Status
1 | (1/1) Accurately ripped
2 | (1/1) Accurately ripped
3 | (1/1) Accurately ripped
4 | (1/1) Accurately ripped
5 | (1/1) Accurately ripped
6 | (1/1) Accurately ripped
7 | (1/1) Accurately ripped
8 | (1/1) Accurately ripped
9 | (1/1) Accurately ripped
[AccurateRip ID: 000ab3ea-004e86fc-8707b909] disk not present in database.
Track Peak [ CRC32 ] [W/O NULL] [ LOG ]
-- 99,8 [0738BDD5] [0426418D]
01 99,8 [38AC50AA] [47EFF355] CRC32
02 99,8 [6A45FB95] [1E91B705] CRC32
03 99,8 [000F71AE] [058DD603] CRC32
04 99,8 [BE4B380F] [DB276FF5] CRC32
05 99,8 [0C50FE90] [A29B24EE] CRC32
06 99,8 [98D9F2EA] [34090195] CRC32
07 99,8 [219FFE39] [0A8F593C] CRC32
08 99,8 [F76472BB] [24781D90] CRC32
09 99,8 [FFAC479D] [9A4A2E5A] CRC32
 
Об альбоме (сборнике)
Gismonti has been amazingly prolific in making many great albums from early 70's up to mid 90's.
Typically, his music is somewhat "rough" but very powerfull, emotive, rich, risky and bold during all the 70's. It is mostly acoustic work with many Gismonti's vocals too. It is a little difficult to access because of the complexity; but once you are in, it will stay with you forever. Most of this earlier work is under EMI or lately reissued under Gimsonti's CARMO labels.
The 80's are a transition period from pure acoustic to a mix between acoustic and electric instruments; Gismonti's vocals tend to disapear. Typically, the music becomes less provocative and more polite than earlier Gismonti's work. It is somewhat more civilized and more easy to access. Yet, the music remains highly sophisticated and creative; but with little less (good or bad?) surprise. Lots of these albums are under ECM label.
The 90's are a period where Gismonti's Group was founded. The music move towards more classical style: very polite, distinctive, fluid and elegant. Yet, there is still this amazing creativity, complexity and freshness of all Gismonti's works.
A few movie music albums are part of this period too (Kuarup, Amazonia). They tend to have more electronic effects but they stay into the elegant distinctive spirit of Gismonti's group latest compositions. Most of these albums are under ECM or CARMO labels.
About SONHO 70 album, it is an early 70's album, making a progressive transition bewteen Gismonti's Estreia 1969 album and all the other albums of the later 70's. The bossa-nova influences are gone in this album and we get into Gismonti's pure style: a kind of complicated mix between classical music and popular brazilian musics. This album features very creative and powerfull melodies, very spirited, that you will not find anywhere else. Yet, it has its own style and all the later work of Gismonti will soubnd different than this album. However, this is an authentic Gismonti masterpiece.
-- Vincent Devaux
22:29
286
Нет комментариев. Ваш будет первым!