Поиск

(Bossa Nova, Bop) Lalo Schifrin - Piano, Strings and Bossa Nova - 1962 (2002), FLAC (image+.cue), lossless

(Bossa Nova, Bop) Lalo Schifrin - Piano, Strings and Bossa Nova - 1962 (2002), FLAC (image+.cue), lossless
Треклист:
Lalo Schifrin - Piano, Strings and Bossa Nova
Жанр: Bossa Nova, Bop
Страна-производитель диска: EU
Год издания: 1962 (2002)
Издатель (лейбл): The Verve Music Group
Номер по каталогу: 589 763-2
Страна: США
Аудиокодек: FLAC (*.flac)
Тип рипа: image+.cue
Битрейт аудио: lossless
Продолжительность: 28:24
Источник (релизер): ROB42 (hqshare)
Наличие сканов в содержимом раздачи: да
Треклист:
01. The Wave (Schifrin) - 2:44
02. Insensatez (Jobim-De Moraes) - 2:23
03. You and Me (Voce e Eu) (Lyra-De Moraes) - 1:48
04. Lalo's Bossa Nova (Samba para Dos) (Schifrin) - 2:17
05. Silvia (Schifrin) - 3:11
06. Murmurio (Antonio-Ferreira) - 2:02
07. Maria (Bernstein-Sondheim) - 2:30
08. Rapaz de Bem (Alf) - 2:35
09. Samba no Perroquet (Parrot Samba) (Ferreira) - 2:04
10. Rio After Dark (Schifrin) - 2:34
11. Time for Love (Mandel-Webster) - 2:26
12. Four Leaf Clover (Woods-Dixon) - 1:51
 
Лог создания рипа
EAC extraction logfile from 25. August 2006, 1:43 for CD
Schifrin Lalo / Piano, Strings And Bossa Nova
Used drive : HL-DT-STDVD-ROM GDR8162B Adapter: 1 ID: 1
Read mode : Secure with NO C2, accurate stream, disable cache
Read offset correction : 102
Overread into Lead-In and Lead-Out : No
Used output format : Internal WAV Routines
44.100 Hz; 16 Bit; Stereo
Other options :
Fill up missing offset samples with silence : Yes
Delete leading and trailing silent blocks : No
Installed external ASPI interface
Range status and errors
Selected range
Filename C:\Eac\Lalo Schifrin - Piano, Strings And Bossa Nova [FLAC+CUE]\CDImage.wav
Peak level 100.0 %
Range quality 100.0 %
CRC A1E2D063
Copy OK
No errors occured
End of status report
 
Содержание индексной карты (.CUE)
REM GENRE Jazz
REM DATE 1962
REM DISCID 9C06A80C
REM COMMENT "ExactAudioCopy v0.95b2"
CATALOG 0731458976325
PERFORMER "Lalo Schifrin"
TITLE "Piano, Strings and Bossa Nova"
FILE "Lalo Schifrin - Piano, Strings and Bossa Nova.wav" WAVE
TRACK 01 AUDIO
TITLE "The Wave"
PERFORMER "Lalo Schifrin"
ISRC USPR39982168
INDEX 01 00:00:00
TRACK 02 AUDIO
TITLE "Insensatez"
PERFORMER "Lalo Schifrin"
ISRC USGR10200337
INDEX 00 02:40:69
INDEX 01 02:43:54
TRACK 03 AUDIO
TITLE "You and Me"
PERFORMER "Lalo Schifrin"
ISRC USGR10200338
INDEX 00 05:03:41
INDEX 01 05:06:19
TRACK 04 AUDIO
TITLE "Lalo's Bossa Nova"
PERFORMER "Lalo Schifrin"
ISRC USGR10200339
INDEX 00 06:51:53
INDEX 01 06:54:29
TRACK 05 AUDIO
TITLE "Silvia"
PERFORMER "Lalo Schifrin"
ISRC USGR10200340
INDEX 00 09:08:06
INDEX 01 09:11:55
TRACK 06 AUDIO
TITLE "Murmurio"
PERFORMER "Lalo Schifrin"
ISRC USGR10200341
INDEX 00 12:21:16
INDEX 01 12:22:72
TRACK 07 AUDIO
TITLE "Maria"
PERFORMER "Lalo Schifrin"
ISRC USGR10200342
INDEX 00 14:19:03
INDEX 01 14:24:38
TRACK 08 AUDIO
TITLE "Rapaz de Bem"
PERFORMER "Lalo Schifrin"
ISRC USGR10200343
INDEX 00 16:51:54
INDEX 01 16:54:19
TRACK 09 AUDIO
TITLE "Samba no Perroquet"
PERFORMER "Lalo Schifrin"
ISRC USGR10200344
INDEX 00 19:26:33
INDEX 01 19:29:16
TRACK 10 AUDIO
TITLE "Rio After Dark"
PERFORMER "Lalo Schifrin"
ISRC USGR10200345
INDEX 00 21:30:57
INDEX 01 21:33:28
TRACK 11 AUDIO
TITLE "Time for Love"
PERFORMER "Lalo Schifrin"
ISRC USGR10200336
INDEX 00 24:04:12
INDEX 01 24:06:69
TRACK 12 AUDIO
TITLE "Four Leaf Clover"
PERFORMER "Lalo Schifrin"
ISRC USGR10200346
INDEX 00 26:30:63
INDEX 01 26:33:12
 
Отчет CUETools
[CUETools log; Date: 11.03.2013 23:24:08; Version: 2.1.4]
[CTDB TOCID: CKUTC5FAW4lkJVYEOwKoq8cFew0-] found.
Track | CTDB Status
1 | (2/2) Accurately ripped
2 | (2/2) Accurately ripped
3 | (2/2) Accurately ripped
4 | (2/2) Accurately ripped
5 | (2/2) Accurately ripped
6 | (2/2) Accurately ripped
7 | (2/2) Accurately ripped
8 | (2/2) Accurately ripped
9 | (2/2) Accurately ripped
10 | (2/2) Accurately ripped
11 | (2/2) Accurately ripped
12 | (2/2) Accurately ripped
[AccurateRip ID: 000ce42b-0078151d-9c06a80c] found.
Track [ CRC | V2 ] Status
01 [f88efc8d|426b9c5d] (11+05/16) Accurately ripped
02 [c3456b8a|1f1c0a25] (11+05/16) Accurately ripped
03 [9bd4b205|a31dc1fe] (11+05/16) Accurately ripped
04 [1899dfd5|70ec5af2] (11+05/16) Accurately ripped
05 [0c4375b8|aac27cbf] (11+05/16) Accurately ripped
06 [bc467a78|8430b873] (11+05/16) Accurately ripped
07 [b276330f|37992f11] (11+05/16) Accurately ripped
08 [1c9733c6|2573b232] (11+05/16) Accurately ripped
09 [97b6d6da|33946f53] (11+05/16) Accurately ripped
10 [fe43bfa4|f8c6491b] (11+05/16) Accurately ripped
11 [9e619754|06765597] (11+05/16) Accurately ripped
12 [9624e381|a728b4e6] (11+05/16) Accurately ripped
Offsetted by 308:
01 [21bb7495] (00/16) No match (V2 was not tested)
02 [ec81d1e6] (00/16) No match (V2 was not tested)
03 [81efbbfd] (00/16) No match (V2 was not tested)
04 [9113b7c9] (00/16) No match (V2 was not tested)
05 [f4da461c] (00/16) No match (V2 was not tested)
06 [258a31b0] (00/16) No match (V2 was not tested)
07 [f0c882f3] (00/16) No match (V2 was not tested)
08 [8935b8f2] (00/16) No match (V2 was not tested)
09 [958fd5aa] (00/16) No match (V2 was not tested)
10 [28ba2094] (00/16) No match (V2 was not tested)
11 [3b9035f0] (00/16) No match (V2 was not tested)
12 [da48cd95] (00/16) No match (V2 was not tested)
Track Peak [ CRC32 ] [W/O NULL] [ LOG ]
-- 100,0 [A1E2D063] [B274549C] CRC32
01 100,0 [D2E04683] [1F3FF023]
02 98,8 [B643A03F] [DB2D9269]
03 100,0 [5CCB71A0] [4AB25692]
04 100,0 [CB9BBD97] [B03EA7C4]
05 93,4 [5C192EB8] [75191CA0]
06 100,0 [50D85F02] [A6042692]
07 100,0 [78ADA448] [1ABDC2CF]
08 100,0 [1699699A] [D141C945]
09 100,0 [CE918396] [2485090F]
10 100,0 [0F65AFF7] [8EDA197B]
11 89,8 [69C519CF] [E8DE3938]
12 99,9 [2CAD96A8] [6A15276D]
 
Review by Rovi
While he’s best known as a composer of music for films and television (the original MISSION: IMPOSSIBLE series), Lalo Schifrin is also a jazz pianist, once in the employ of iconic trumpeter Dizzy Gillespie in the late-1950s and early-‘60s. Released in 1962, BOSSA NOVA finds the Argentina-born Schifrin paying tribute to the Brazilian style with lush, elegant strings and his lyrical piano. There are bossa nova standards, three originals, and some songs by American composers given the romantic bossa treatment.
 
Состав
Lalo Schifrin - piano, arranger
Jim Hall - guitar
Chris White - bass
Carmen Costa, Jose Paulo - percussion
Rudy Collins - drums
+
nine unknown - violin
four unknown - viola
two unknown - cello
unknown - harp
Recorded in New York City on October 23 (#1-7) and 24 (#8-12), 1962.
10:51
340
Нет комментариев. Ваш будет первым!