Поиск

(Brazilian Jazz) Gilberto Gil - O Sol de Oslo - 1998, FLAC (tracks+.cue), lossless

(Brazilian Jazz) Gilberto Gil - O Sol de Oslo - 1998, FLAC (tracks+.cue), lossless
Треклист:
Gilberto Gil - O Sol de Oslo
Жанр: Brazilian Jazz
Год издания: 1998
Издатель (лейбл): Biscoito Fino
Страна: Бразилия
Аудиокодек: FLAC (*.flac)
Тип рипа: tracks+.cue
Битрейт аудио: lossless
Продолжительность: 51:19
Источник (релизер): hoophound (what)
Наличие сканов в содержимом раздачи: нет
Треклист:
01. Tata Engenho Novo (3:52)
02. Mana (2:01)
03. 17 Na Corrente (3:10)
04. Xote (5:47)
05. Eu Te Dei Meu Ane (3:08)
06. Kao (6:19)
07. Ciranda (3:24)
08. Rep (2:59)
09. Onde O Xaxado Ta (3:01)
10. Lingua Do Pe (4:22)
11. A Santinha La Da Serra (4:27)
12. Ai Baiano (0:34)
13. Bastiana (4:14)
14. Oslodum (4:01)
Состав:
Gilberto Gil - guitar & voice
Bugge Wesseltoft - piano, keyboards
Celso Fonseca - guitar
Toninho Ferragutti - accordion
Rodolfo Stroeter - acoustic & electric basses
Zezinho Pitoco - drums, zabumba
Marlui Miranda - guitar & voice
Trilok Gurtu - percussion & voices
 
Лог создания рипа
Exact Audio Copy V0.99 prebeta 4 from 23. January 2008
EAC extraction logfile from 25. March 2009, 18:17
Gilberto Gil / O Sol De Oslo
Used drive : HL-DT-STDVD-RAM GH22NS30 Adapter: 0 ID: 1
Read mode : Secure
Utilize accurate stream : Yes
Defeat audio cache : Yes
Make use of C2 pointers : No
Read offset correction : 102
Overread into Lead-In and Lead-Out : No
Fill up missing offset samples with silence : Yes
Delete leading and trailing silent blocks : No
Null samples used in CRC calculations : Yes
Used interface : Native Win32 interface for Win NT & 2000
Gap handling : Appended to previous track
Used output format : User Defined Encoder
Selected bitrate : 768 kBit/s
Quality : High
Add ID3 tag : No
Command line compressor : C:\Program Files\Exact Audio Copy\FLAC\FLAC.EXE
Additional command line options : -V -8 -T "artist=%a" -T "title=%t" -T "album=%g" -T "date=%y" -T "tracknumber=%n" -T "genre=%m" %s
TOC of the extracted CD
Track | Start | Length | Start sector | End sector
---------------------------------------------------------
1 | 0:00.00 | 3:51.38 | 0 | 17362
2 | 3:51.38 | 2:01.06 | 17363 | 26443
3 | 5:52.44 | 3:09.40 | 26444 | 40658
4 | 9:02.09 | 5:46.68 | 40659 | 66676
5 | 14:49.02 | 3:07.47 | 66677 | 80748
6 | 17:56.49 | 6:19.00 | 80749 | 109173
7 | 24:15.49 | 3:24.07 | 109174 | 124480
8 | 27:39.56 | 2:58.43 | 124481 | 137873
9 | 30:38.24 | 3:00.40 | 137874 | 151413
10 | 33:38.64 | 4:21.67 | 151414 | 171055
11 | 38:00.56 | 4:27.21 | 171056 | 191101
12 | 42:28.02 | 0:33.58 | 191102 | 193634
13 | 43:01.60 | 4:13.54 | 193635 | 212663
14 | 47:15.39 | 4:00.38 | 212664 | 230701
Track 1
Filename G:\EACrips\Gilberto Gil - 1998 - O Sol De Oslo\01 - Tatб Engenho Novo.wav
Pre-gap length 0:00:02.00
Peak level 98.1 %
Track quality 100.0 %
Test CRC 7085DEBB
Copy CRC 7085DEBB
Track not present in AccurateRip database
Copy OK
Track 2
Filename G:\EACrips\Gilberto Gil - 1998 - O Sol De Oslo\02 - Mana.wav
Pre-gap length 0:00:01.69
Peak level 97.9 %
Track quality 100.0 %
Test CRC DF85CBC9
Copy CRC DF85CBC9
Track not present in AccurateRip database
Copy OK
Track 3
Filename G:\EACrips\Gilberto Gil - 1998 - O Sol De Oslo\03 - 17 Na Corrente.wav
Pre-gap length 0:00:04.63
Peak level 98.1 %
Track quality 100.0 %
Test CRC 63B37276
Copy CRC 63B37276
Track not present in AccurateRip database
Copy OK
Track 4
Filename G:\EACrips\Gilberto Gil - 1998 - O Sol De Oslo\04 - Xote.wav
Pre-gap length 0:00:04.11
Peak level 98.1 %
Track quality 100.0 %
Test CRC D33D17E1
Copy CRC D33D17E1
Track not present in AccurateRip database
Copy OK
Track 5
Filename G:\EACrips\Gilberto Gil - 1998 - O Sol De Oslo\05 - Eu Te Dei Meu Anй.wav
Pre-gap length 0:00:03.30
Peak level 98.1 %
Track quality 99.9 %
Test CRC 32E7B736
Copy CRC 32E7B736
Track not present in AccurateRip database
Copy OK
Track 6
Filename G:\EACrips\Gilberto Gil - 1998 - O Sol De Oslo\06 - Kaф.wav
Pre-gap length 0:00:04.72
Peak level 98.1 %
Track quality 100.0 %
Test CRC D0099304
Copy CRC D0099304
Track not present in AccurateRip database
Copy OK
Track 7
Filename G:\EACrips\Gilberto Gil - 1998 - O Sol De Oslo\07 - Ciranda.wav
Peak level 98.1 %
Track quality 100.0 %
Test CRC 84C3B8F1
Copy CRC 84C3B8F1
Track not present in AccurateRip database
Copy OK
Track 8
Filename G:\EACrips\Gilberto Gil - 1998 - O Sol De Oslo\08 - Rep.wav
Pre-gap length 0:00:03.26
Peak level 98.1 %
Track quality 100.0 %
Test CRC 30A351A5
Copy CRC 30A351A5
Track not present in AccurateRip database
Copy OK
Track 9
Filename G:\EACrips\Gilberto Gil - 1998 - O Sol De Oslo\09 - Onde O Xaxado Tб.wav
Peak level 98.1 %
Track quality 100.0 %
Test CRC DE633B87
Copy CRC DE633B87
Track not present in AccurateRip database
Copy OK
Track 10
Filename G:\EACrips\Gilberto Gil - 1998 - O Sol De Oslo\10 - Lнngua Do Pк.wav
Pre-gap length 0:00:02.13
Peak level 98.1 %
Track quality 100.0 %
Test CRC 6FECC207
Copy CRC 6FECC207
Track not present in AccurateRip database
Copy OK
Track 11
Filename G:\EACrips\Gilberto Gil - 1998 - O Sol De Oslo\11 - A Santinha Lб Da Serra.wav
Pre-gap length 0:00:02.01
Peak level 98.1 %
Track quality 99.9 %
Test CRC 41DB525A
Copy CRC 41DB525A
Track not present in AccurateRip database
Copy OK
Track 12
Filename G:\EACrips\Gilberto Gil - 1998 - O Sol De Oslo\12 - Ai Baiano.wav
Pre-gap length 0:00:04.35
Peak level 92.3 %
Track quality 100.0 %
Test CRC 3842D2D7
Copy CRC 3842D2D7
Track not present in AccurateRip database
Copy OK
Track 13
Filename G:\EACrips\Gilberto Gil - 1998 - O Sol De Oslo\13 - Bastiana.wav
Peak level 98.0 %
Track quality 100.0 %
Test CRC 2AC5ECCF
Copy CRC 2AC5ECCF
Track not present in AccurateRip database
Copy OK
Track 14
Filename G:\EACrips\Gilberto Gil - 1998 - O Sol De Oslo\14 - Oslodum.wav
Pre-gap length 0:00:02.04
Peak level 98.1 %
Track quality 100.0 %
Test CRC 7FE3AB3F
Copy CRC 7FE3AB3F
Track not present in AccurateRip database
Copy OK
None of the tracks are present in the AccurateRip database
No errors occurred
End of status report
 
Содержание индексной карты (.CUE)
REM GENRE Jazz
REM DATE 1998
REM DISCID B50C040E
REM COMMENT "ExactAudioCopy v0.99pb4"
PERFORMER "Gilberto Gil"
TITLE "O Sol De Oslo"
FILE "01 - Tata Engenho Novo.wav" WAVE
TRACK 01 AUDIO
TITLE "Tata Engenho Novo"
PERFORMER "Gilberto Gil"
INDEX 01 00:00:00
TRACK 02 AUDIO
TITLE "Mana"
PERFORMER "Gilberto Gil"
INDEX 00 03:49:44
FILE "02 - Mana.wav" WAVE
INDEX 01 00:00:00
TRACK 03 AUDIO
TITLE "17 Na Corrente"
PERFORMER "Gilberto Gil"
INDEX 00 01:56:18
FILE "03 - 17 Na Corrente.wav" WAVE
INDEX 01 00:00:00
TRACK 04 AUDIO
TITLE "Xote"
PERFORMER "Gilberto Gil"
INDEX 00 03:05:29
FILE "04 - Xote.wav" WAVE
INDEX 01 00:00:00
TRACK 05 AUDIO
TITLE "Eu Te Dei Meu Ane"
PERFORMER "Gilberto Gil"
INDEX 00 05:43:38
FILE "05 - Eu Te Dei Meu Ane.wav" WAVE
INDEX 01 00:00:00
TRACK 06 AUDIO
TITLE "Kao"
PERFORMER "Gilberto Gil"
INDEX 00 03:02:50
FILE "06 - Kao.wav" WAVE
INDEX 01 00:00:00
FILE "07 - Ciranda.wav" WAVE
TRACK 07 AUDIO
TITLE "Ciranda"
PERFORMER "Gilberto Gil"
INDEX 01 00:00:00
TRACK 08 AUDIO
TITLE "Rep"
PERFORMER "Gilberto Gil"
INDEX 00 03:20:56
FILE "08 - Rep.wav" WAVE
INDEX 01 00:00:00
FILE "09 - Onde O Xaxado Ta.wav" WAVE
TRACK 09 AUDIO
TITLE "Onde O Xaxado Ta"
PERFORMER "Gilberto Gil"
INDEX 01 00:00:00
TRACK 10 AUDIO
TITLE "Lingua Do Pe"
PERFORMER "Gilberto Gil"
INDEX 00 02:58:27
FILE "10 - Lingua Do Pe.wav" WAVE
INDEX 01 00:00:00
TRACK 11 AUDIO
TITLE "A Santinha La Da Serra"
PERFORMER "Gilberto Gil"
INDEX 00 04:19:66
FILE "11 - A Santinha La Da Serra.wav" WAVE
INDEX 01 00:00:00
TRACK 12 AUDIO
TITLE "Ai Baiano"
PERFORMER "Gilberto Gil"
INDEX 00 04:22:61
FILE "12 - Ai Baiano.wav" WAVE
INDEX 01 00:00:00
FILE "13 - Bastiana.wav" WAVE
TRACK 13 AUDIO
TITLE "Bastiana"
PERFORMER "Gilberto Gil"
INDEX 01 00:00:00
TRACK 14 AUDIO
TITLE "Oslodum"
PERFORMER "Gilberto Gil"
INDEX 00 04:11:50
FILE "14 - Oslodum.wav" WAVE
INDEX 01 00:00:00
 
Отчет CUETools
[CUETools log; Date: 12.03.2013 2:06:15; Version: 2.1.4]
[CTDB TOCID: nOqoFiZoMwkxAhlt1VV0EwtrOm4-] found.
Track | CTDB Status
1 | (1/1) Accurately ripped
2 | (1/1) Accurately ripped
3 | (1/1) Accurately ripped
4 | (1/1) Accurately ripped
5 | (1/1) Accurately ripped
6 | (1/1) Accurately ripped
7 | (1/1) Accurately ripped
8 | (1/1) Accurately ripped
9 | (1/1) Accurately ripped
10 | (1/1) Accurately ripped
11 | (1/1) Accurately ripped
12 | (1/1) Accurately ripped
13 | (1/1) Accurately ripped
14 | (1/1) Accurately ripped
[AccurateRip ID: 001ac38a-011df16f-b50c040e] disk not present in database.
Track Peak [ CRC32 ] [W/O NULL] [ LOG ]
-- 98,1 [3B460CB2] [67259398]
01 98,1 [7085DEBB] [B0495C92] CRC32
02 97,8 [DF85CBC9] [426429D9] CRC32
03 98,1 [63B37276] [4075A96B] CRC32
04 98,1 [D33D17E1] [3FD4DB8E] CRC32
05 98,1 [32E7B736] [C97EDCD2] CRC32
06 98,1 [D0099304] [278EFFD2] CRC32
07 98,1 [84C3B8F1] [4DD95B23] CRC32
08 98,1 [30A351A5] [08D10350] CRC32
09 98,1 [DE633B87] [0917EDD8] CRC32
10 98,1 [6FECC207] [4AF3D0A2] CRC32
11 98,1 [41DB525A] [312C690E] CRC32
12 92,3 [3842D2D7] [F9F9BC70] CRC32
13 98,0 [2AC5ECCF] [0913F672] CRC32
14 98,1 [7FE3AB3F] [E0E5E474] CRC32
 
Review by Alvaro Neder
In his extensive discography, Gilberto Gil has explored almost every possible shade of pop music. In this album, produced by the independent label Pau Brasil (Gil is a WEA artist), he felt safe to shamelessly go back to earlier days, where his wonderful melodies were free of the artist's anxiety for fame and success. This album is a delicate collection of acoustic grooves (with a couple of electric renditions), with several different world references, ranging from folkloric chants (the researcher/singer Marlui Miranda is instrumental here), northeastern coco (the folkloric "Tatá Engenho Novo" is hot, swinging, and thrilling), cantigas ("Mana," folklore), xote-ska ("Xote"), new age ("Kaô"), modern ciranda ("Ciranda," beautiful, dissonant melody by Moacir Santos), rap ("Rep," excellent deconstruction of that style by the smart percussion of Trilok Gurtu), xaxado ("Onde O Xaxado Tá," faithful acoustic rendition), and the hot Olodum rhythm ("Oslodum"). There is even a traditional coco, "17 Na Corrente," which may be a hit in the dance clubs in its funk rendition with drum machines and brass attacks. Pay attention to the beautiful jazz-baião solo in "Eu Te Dei Meu Ané." Joined by excellent musicians Marlui Miranda, Bugge Wesseltoft, Trilok Gurtu, and Toninho Ferragutti, Gilberto Gil makes justice to his name with Sol de Oslo, which stands several notches above the average pop record.
Здесь - другое издание.
10:52
353
Нет комментариев. Ваш будет первым!