Поиск

2010 Abdullah Ibrahim, Ekaya - Sotho Blue {Sunnyside} [CD]

2010 Abdullah Ibrahim, Ekaya - Sotho Blue {Sunnyside} [CD]
Носитель: CD
Год издания: 2010
Издатель (лейбл): Sunnyside
Номер по каталогу: SSC1276
Страна: США
Аудиокодек: FLAC (*.flac)
Тип рипа: tracks+.cue
Битрейт аудио: lossless
Продолжительность: 49:27
Источник (релизер): hemminm (what)
Наличие сканов в содержимом раздачи: нет
Треклист:
01. Calypso Minor (Ibrahim) - 6:24
02. Sotho Blue (Ibrahim) - 5:27
03. Abide (Ibrahim) - 2:52
04. Nisa (Ibrahim) - 6:32
05. The Mountain (Ibrahim) - 2:54
06. The Wedding (Ibrahim) - 3:47
07. Glass Enclosure (Powell) - 7:00
08. Star Dance (Ibrahim) - 5:09
09. Joan Capetown Flower (Emerald Bay) (Ibrahim) - 9:22
Состав:
  • Abdullah Ibrahim — piano
  • Cleave Guyton — alto saxophone, flute
  • Keith Loftis — tenor saxophone
  • Jason Marshall — baritone saxophone
  • Andrae Murchison — trombone
  • Belden Bullock — acoustic bass
  • George Gray — drums

Recorded at Hansahaus Studios, Bonn (Germany) in March 2010.

Лог создания рипа
Exact Audio Copy V1.0 beta 3 from 29. August 2011
EAC extraction logfile from 17. August 2015, 21:52
Abdullah Ibrahim & Ekaya / Sotho Blue
Used drive  : MATSHITADVD-RAM UJ8C0   Adapter: 0  ID: 0
Read mode               : Secure
Utilize accurate stream : Yes
Defeat audio cache      : Yes
Make use of C2 pointers : No
Read offset correction                      : 103
Overread into Lead-In and Lead-Out          : No
Fill up missing offset samples with silence : Yes
Delete leading and trailing silent blocks   : No
Null samples used in CRC calculations       : Yes
Used interface                              : Native Win32 interface for Win NT & 2000
Gap handling                                : Appended to previous track
Used output format              : User Defined Encoder
Selected bitrate                : 1024 kBit/s
Quality                         : High
Add ID3 tag                     : No
Command line compressor         : C:\Program Files (x86)\Exact Audio Copy\Flac\flac.exe
Additional command line options : -8 -V -T "ARTIST=%artist%" -T "TITLE=%title%" -T "ALBUM=%albumtitle%" -T "DATE=%year%" -T "TRACKNUMBER=%tracknr%" -T "GENRE=%genre%" -T "PERFORMER=%albuminterpret%" -T "COMPOSER=%composer%" %haslyrics%--tag-from-file=LYRICS="%lyricsfile%"%haslyrics% -T "ALBUMARTIST=%albumartist%" -T "DISCNUMBER=%cdnumber%" -T "TOTALDISCS=%totalcds%" -T "TOTALTRACKS=%numtracks%" -T "COMMENT=%comment%" %source% -o %dest%
TOC of the extracted CD
     Track |   Start  |  Length  | Start sector | End sector
    ---------------------------------------------------------
        1  |  0:00.00 |  6:23.54 |         0    |    28778
        2  |  6:23.54 |  5:27.22 |     28779    |    53325
        3  | 11:51.01 |  2:51.51 |     53326    |    66201
        4  | 14:42.52 |  6:31.45 |     66202    |    95571
        5  | 21:14.22 |  2:53.71 |     95572    |   108617
        6  | 24:08.18 |  3:46.46 |    108618    |   125613
        7  | 27:54.64 |  6:59.62 |    125614    |   157100
        8  | 34:54.51 |  5:08.45 |    157101    |   180245
        9  | 40:03.21 |  9:21.61 |    180246    |   222381
Track  1
     Filename C:\Users\micha_000\Music\CDEX\01 - Calypso Minor.wav
     Pre-gap length  0:00:02.00
     Peak level 97.7 %
     Extraction speed 2.6 X
     Track quality 100.0 %
     Test CRC C73CC472
     Copy CRC C73CC472
     Accurately ripped (confidence 5)  [82948D37]  (AR v2)
     Copy OK
Track  2
     Filename C:\Users\micha_000\Music\CDEX\02 - Sotho Blue.wav
     Pre-gap length  0:00:03.00
     Peak level 91.0 %
     Extraction speed 2.9 X
     Track quality 100.0 %
     Test CRC 3EBC4DEC
     Copy CRC 3EBC4DEC
     Accurately ripped (confidence 5)  [4E85234B]  (AR v2)
     Copy OK
Track  3
     Filename C:\Users\micha_000\Music\CDEX\03 - Abide.wav
     Pre-gap length  0:00:03.00
     Peak level 86.2 %
     Extraction speed 2.9 X
     Track quality 100.0 %
     Test CRC 5CD28B3E
     Copy CRC 5CD28B3E
     Accurately ripped (confidence 5)  [AD35D8ED]  (AR v2)
     Copy OK
Track  4
     Filename C:\Users\micha_000\Music\CDEX\04 - Nisa.wav
     Pre-gap length  0:00:03.00
     Peak level 94.4 %
     Extraction speed 3.5 X
     Track quality 100.0 %
     Test CRC 9273EA0B
     Copy CRC 9273EA0B
     Accurately ripped (confidence 5)  [014A6811]  (AR v2)
     Copy OK
Track  5
     Filename C:\Users\micha_000\Music\CDEX\05 - The Mountain.wav
     Pre-gap length  0:00:03.00
     Peak level 91.7 %
     Extraction speed 2.3 X
     Track quality 99.9 %
     Test CRC 75BE7B03
     Copy CRC 75BE7B03
     Accurately ripped (confidence 5)  [E32A9BA1]  (AR v2)
     Copy OK
Track  6
     Filename C:\Users\micha_000\Music\CDEX\06 - The Wedding.wav
     Pre-gap length  0:00:03.00
     Peak level 83.2 %
     Extraction speed 3.6 X
     Track quality 100.0 %
     Test CRC E8434991
     Copy CRC E8434991
     Accurately ripped (confidence 5)  [73827494]  (AR v2)
     Copy OK
Track  7
     Filename C:\Users\micha_000\Music\CDEX\07 - Glass Enclosure.wav
     Pre-gap length  0:00:03.00
     Peak level 97.7 %
     Extraction speed 4.2 X
     Track quality 100.0 %
     Test CRC 5251BD9A
     Copy CRC 5251BD9A
     Accurately ripped (confidence 5)  [FB35E396]  (AR v2)
     Copy OK
Track  8
     Filename C:\Users\micha_000\Music\CDEX\08 - Star Dance.wav
     Pre-gap length  0:00:03.00
     Peak level 97.6 %
     Extraction speed 4.3 X
     Track quality 100.0 %
     Test CRC BDCB47CD
     Copy CRC BDCB47CD
     Accurately ripped (confidence 5)  [DB700BF6]  (AR v2)
     Copy OK
Track  9
     Filename C:\Users\micha_000\Music\CDEX\09 - Joan Capetown Flower (Emerald Bay).wav
     Pre-gap length  0:00:03.00
     Peak level 95.9 %
     Extraction speed 4.8 X
     Track quality 100.0 %
     Test CRC F52A259A
     Copy CRC F52A259A
     Accurately ripped (confidence 5)  [969D7B8A]  (AR v2)
     Copy OK
All tracks accurately ripped
No errors occurred
End of status report
==== Log checksum C83205D19346C42F173880BD061635528CCD457F43A4C1CF7A01C94038727033 ====
10:50
872
Нет комментариев. Ваш будет первым!