Поиск

(Blue Note, Fusion, Ethnic, Contemporary Jazz) [CD] Lionel Loueke Trio (Massimo Biolcati, Ferenc Nemeth) - Gaia - 2015, FLAC (tracks+.cue), lossless

(Blue Note, Fusion, Ethnic, Contemporary Jazz) [CD] Lionel Loueke Trio (Massimo Biolcati, Ferenc Nemeth) - Gaia - 2015, FLAC (tracks+.cue), lossless
LIONEL LOUEKE
GAÏA
Жанр: Fusion, Ethnic, Contemporary Jazz
Страна-изготовитель диска: USA
Год издания: 2015
Издатель (лейбл): Blue Note Records
Номер по каталогу: B002354502
Аудиокодек: FLAC (*.flac)
Тип рипа: tracks+.cue
Битрейт аудио: lossless
Продолжительность: 55:35
Источник (релизер): спасибо cryptic13
Наличие сканов: да
Треклист:
01. Broken
02. Sleepless Night
03. Sources Of Love
04. Wacko Loco
05. Aziza Dance
06. Rain Wash
07. Forgiveness
08. Even Teens
09. Gaïa
10. Veuve Malienee
11. Procession
12. How Deep Is Your Love?
 
Лог создания рипа
Exact Audio Copy V1.0 beta 3 from 29. August 2011
EAC extraction logfile from 12. November 2015, 20:53
Lionel Loueke / Gaia
Used drive : SONY DVD RW DRU-810A Adapter: 1 ID: 0
Read mode : Secure
Utilize accurate stream : Yes
Defeat audio cache : Yes
Make use of C2 pointers : No
Read offset correction : 618
Overread into Lead-In and Lead-Out : No
Fill up missing offset samples with silence : Yes
Delete leading and trailing silent blocks : No
Null samples used in CRC calculations : Yes
Used interface : Native Win32 interface for Win NT & 2000
Gap handling : Appended to previous track
Used output format : User Defined Encoder
Selected bitrate : 128 kBit/s
Quality : High
Add ID3 tag : No
Command line compressor : C:\Program Files (x86)\Exact Audio Copy\Flac\flac.exe
Additional command line options : -8 -V -T "ARTIST=%artist%" -T "TITLE=%title%" -T "ALBUM=%albumtitle%" -T "DATE=%year%" -T "TRACKNUMBER=%tracknr%" -T "TOTALTRACKS=%numtracks%" -T "GENRE=%genre%" -T "ALBUMARTIST=%albumartist%" -T "ALBUM ARTIST=%albumartist%" -T "COMMENT=EAC Secure Mode, Test & Copy, AccurateRip, FLAC -8" %source%
TOC of the extracted CD
Track | Start | Length | Start sector | End sector
---------------------------------------------------------
1 | 0:00.00 | 2:45.23 | 0 | 12397
2 | 2:45.23 | 5:50.71 | 12398 | 38718
3 | 8:36.19 | 4:31.26 | 38719 | 59069
4 | 13:07.45 | 3:42.64 | 59070 | 75783
5 | 16:50.34 | 5:17.43 | 75784 | 99601
6 | 22:08.02 | 4:29.65 | 99602 | 119841
7 | 26:37.67 | 7:05.62 | 119842 | 151778
8 | 33:43.54 | 4:02.11 | 151779 | 169939
9 | 37:45.65 | 3:47.13 | 169940 | 186977
10 | 41:33.03 | 6:32.15 | 186978 | 216392
11 | 48:05.18 | 3:19.73 | 216393 | 231390
12 | 51:25.16 | 4:21.47 | 231391 | 251012
Track 1
Filename F:\New Rips\Lionel Loueke - Gaia (2015) [FLAC]\01 - Broken.wav
Pre-gap length 0:00:02.00
Peak level 98.8 %
Extraction speed 3.7 X
Track quality 99.9 %
Test CRC 4302CE03
Copy CRC 4302CE03
Track not present in AccurateRip database
Copy OK
Track 2
Filename F:\New Rips\Lionel Loueke - Gaia (2015) [FLAC]\02 - Sleepless Night.wav
Pre-gap length 0:00:01.00
Peak level 98.8 %
Extraction speed 4.9 X
Track quality 99.9 %
Test CRC 26BC5655
Copy CRC 26BC5655
Track not present in AccurateRip database
Copy OK
Track 3
Filename F:\New Rips\Lionel Loueke - Gaia (2015) [FLAC]\03 - Sources Of Love.wav
Pre-gap length 0:00:01.00
Peak level 98.8 %
Extraction speed 5.9 X
Track quality 100.0 %
Test CRC 1AE457CD
Copy CRC 1AE457CD
Track not present in AccurateRip database
Copy OK
Track 4
Filename F:\New Rips\Lionel Loueke - Gaia (2015) [FLAC]\04 - Wacko Loco.wav
Pre-gap length 0:00:01.00
Peak level 98.8 %
Extraction speed 6.1 X
Track quality 100.0 %
Test CRC 07029E02
Copy CRC 07029E02
Track not present in AccurateRip database
Copy OK
Track 5
Filename F:\New Rips\Lionel Loueke - Gaia (2015) [FLAC]\05 - Aziza Dance.wav
Pre-gap length 0:00:01.00
Peak level 98.8 %
Extraction speed 6.8 X
Track quality 100.0 %
Test CRC E24A742C
Copy CRC E24A742C
Track not present in AccurateRip database
Copy OK
Track 6
Filename F:\New Rips\Lionel Loueke - Gaia (2015) [FLAC]\06 - Rain Wash.wav
Pre-gap length 0:00:01.00
Peak level 100.0 %
Extraction speed 7.0 X
Track quality 100.0 %
Test CRC E0BAD8FB
Copy CRC E0BAD8FB
Track not present in AccurateRip database
Copy OK
Track 7
Filename F:\New Rips\Lionel Loueke - Gaia (2015) [FLAC]\07 - Forgiveness.wav
Pre-gap length 0:00:01.00
Peak level 98.8 %
Extraction speed 7.8 X
Track quality 100.0 %
Test CRC 04D6153F
Copy CRC 04D6153F
Track not present in AccurateRip database
Copy OK
Track 8
Filename F:\New Rips\Lionel Loueke - Gaia (2015) [FLAC]\08 - Even Teens.wav
Pre-gap length 0:00:01.00
Peak level 98.8 %
Extraction speed 7.7 X
Track quality 100.0 %
Test CRC 9A206371
Copy CRC 9A206371
Track not present in AccurateRip database
Copy OK
Track 9
Filename F:\New Rips\Lionel Loueke - Gaia (2015) [FLAC]\09 - Gaia.wav
Pre-gap length 0:00:01.00
Peak level 98.8 %
Extraction speed 7.9 X
Track quality 100.0 %
Test CRC D4FC258D
Copy CRC D4FC258D
Track not present in AccurateRip database
Copy OK
Track 10
Filename F:\New Rips\Lionel Loueke - Gaia (2015) [FLAC]\10 - Veuve Malienee.wav
Pre-gap length 0:00:01.00
Peak level 100.0 %
Extraction speed 8.7 X
Track quality 100.0 %
Test CRC 1769C950
Copy CRC 1769C950
Track not present in AccurateRip database
Copy OK
Track 11
Filename F:\New Rips\Lionel Loueke - Gaia (2015) [FLAC]\11 - Procession.wav
Pre-gap length 0:00:01.00
Peak level 98.8 %
Extraction speed 8.3 X
Track quality 100.0 %
Test CRC 82AC2084
Copy CRC 82AC2084
Track not present in AccurateRip database
Copy OK
Track 12
Filename F:\New Rips\Lionel Loueke - Gaia (2015) [FLAC]\12 - How Deep Is Your Love.wav
Pre-gap length 0:00:01.00
Peak level 98.8 %
Extraction speed 7.5 X
Track quality 99.9 %
Test CRC 72F02882
Copy CRC 72F02882
Track not present in AccurateRip database
Copy OK
None of the tracks are present in the AccurateRip database
No errors occurred
End of status report
---- CUETools DB Plugin V2.1.3
[CTDB TOCID: wH82XLx8uRkF4J45JcBx3_BVp2g-] disk not present in database, Submit result: wH82XLx8uRkF4J45JcBx3_BVp2g- has been uploaded
==== Log checksum 6F150472AF91168741E58709772E840796A0B0162A104BC1E1E8D87D0D977CAA ====
 
Содержание индексной карты (.CUE)
REM GENRE Jazz
REM DATE 2015
REM DISCID B20D120C
REM COMMENT "ExactAudioCopy v1.0b3"
PERFORMER "Lionel Loueke"
TITLE "Gaia"
FILE "01 - Broken.flac" WAVE
TRACK 01 AUDIO
TITLE "Broken "
PERFORMER "Lionel Loueke"
INDEX 01 00:00:00
TRACK 02 AUDIO
TITLE "Sleepless Night "
PERFORMER "Lionel Loueke"
FLAGS DCP
INDEX 00 02:44:23
FILE "02 - Sleepless Night.flac" WAVE
INDEX 01 00:00:00
TRACK 03 AUDIO
TITLE "Sources Of Love"
PERFORMER "Lionel Loueke"
FLAGS DCP
INDEX 00 05:49:71
FILE "03 - Sources Of Love.flac" WAVE
INDEX 01 00:00:00
TRACK 04 AUDIO
TITLE "Wacko Loco"
PERFORMER "Lionel Loueke"
FLAGS DCP
INDEX 00 04:30:26
FILE "04 - Wacko Loco.flac" WAVE
INDEX 01 00:00:00
TRACK 05 AUDIO
TITLE "Aziza Dance"
PERFORMER "Lionel Loueke"
FLAGS DCP
INDEX 00 03:41:64
FILE "05 - Aziza Dance.flac" WAVE
INDEX 01 00:00:00
TRACK 06 AUDIO
TITLE "Rain Wash"
PERFORMER "Lionel Loueke"
FLAGS DCP
INDEX 00 05:16:43
FILE "06 - Rain Wash.flac" WAVE
INDEX 01 00:00:00
TRACK 07 AUDIO
TITLE "Forgiveness"
PERFORMER "Lionel Loueke"
FLAGS DCP
INDEX 00 04:28:65
FILE "07 - Forgiveness.flac" WAVE
INDEX 01 00:00:00
TRACK 08 AUDIO
TITLE "Even Teens"
PERFORMER "Lionel Loueke"
FLAGS DCP
INDEX 00 07:04:62
FILE "08 - Even Teens.flac" WAVE
INDEX 01 00:00:00
TRACK 09 AUDIO
TITLE "Gaia"
PERFORMER "Lionel Loueke"
FLAGS DCP
INDEX 00 04:01:11
FILE "09 - Gaia.flac" WAVE
INDEX 01 00:00:00
TRACK 10 AUDIO
TITLE "Veuve Malienee"
PERFORMER "Lionel Loueke"
FLAGS DCP
INDEX 00 03:46:13
FILE "10 - Veuve Malienee.flac" WAVE
INDEX 01 00:00:00
TRACK 11 AUDIO
TITLE "Procession"
PERFORMER "Lionel Loueke"
FLAGS DCP
INDEX 00 06:31:15
FILE "11 - Procession.flac" WAVE
INDEX 01 00:00:00
TRACK 12 AUDIO
TITLE "How Deep Is Your Love"
PERFORMER "Lionel Loueke"
FLAGS DCP
INDEX 00 03:18:73
FILE "12 - How Deep Is Your Love.flac" WAVE
INDEX 01 00:00:00
 
Об альбоме
Lionel Loueke's newest trio album Gaia has the guitarist rocking hard, indulging in trippy effects on his instrument and in odd, but very natural-sounding, time signatures. It's also one of the most compelling listens you'll come across in 2015. You want this one.
Loueke's trio of 15 years consists of Ferenc Nemeth on drums and Massimo Biolcati on bass, along with Loueke on guitar. From the first notes of "Broken", Loueke and the trio are off and running with odd-meter vamps and hard rocking guitar solos. The album's tunes have a sense of immediacy, as if they were being created on the spot and very much in the moment. There are composed heads (or in some cases riffs to launch a solo), but by the time Loueke's effect-laden solos hit your ears, that will be all that matters. There are strange time signatures, but you won't notice it's in 17/8 or whatever unless you decide to count along, because the band sounds incredibly comfortable in these tunes. Nemeth and Biolcati have no problem keeping up with Loueke here and pushing incredibly hard. Parts of the album are reminiscent of Band of Gypsys-era Hendrix, and others of Led Zeppelin: Nemeth gets his John Bonham on at the end of "Sleepless Night" and "Wacko Loco" (best song title ever?) has the best rock guitar solo this side of Jimmy Page. That said, the trio does have some calmer moments - on "Rain Wash", Loueke plays acoustic guitar and the trio creates an impressionistic canvas. That is followed by "Forgiveness", with a beautiful theme and feel.
"Forgiveness" is followed by "Even Teens", which brings back the hard-driving weirdness that dominates this album. The tune starts with a wild bass solo introduction from Biolcati before moving into a stop-start rhythm. Two of the most ear-catching themes from Gaia are "Procession", with a melodic, almost Beatles-ish guitar riff, and "Aziza Dance", with its bouncy rhythms and interplay among the drums, bass, and guitar.
GAIA is stunning from start to finish - the trio covers a range of moods and showcases their virtuosic abilities in an almost casual way throughout. (Ben Gray, nextbop.com)
 
Состав

Lionel Loueke - guitar
Massimo Biolcati - bass
Ferenc Nemeth - drums
Приватный:
Нет (DHT включён)
Размер:
355.21 Мб (372,460,850 байт) » файлов: 23
Участники:
0 раздают, 0 качают (0 участников всего)
Внешние участники:
--- [ Обновить ]
18:51
1
RSS
Нет комментариев. Ваш будет первым!