Поиск

(Fusion / Jazz-Rock) [CD] Tatran - Shvat - 2014, FLAC (tracks+.cue), lossless

(Fusion / Jazz-Rock) [CD] Tatran - Shvat - 2014, FLAC (tracks+.cue), lossless
Треклист:
Tatran / Shvat
Жанр: Fusion / Jazz-Rock
Носитель: CD
Страна-производитель диска (релиза): Israel
Год издания: 2014
Издатель (лейбл): Self Released
Номер по каталогу: no number
Страна исполнителя (группы): Israel
Аудиокодек: FLAC (*.flac)
Тип рипа: tracks .cue
Битрейт аудио: lossless
Продолжительность: 60:06 min
Источник (релизер): musicgate
Наличие сканов в содержимом раздачи:
Треклист:
1. The Utilitarian. 2:27
2. Space Out. 3:40
3. Shore. 3:51
4. WW III. 7:34
5. Shvat. 4:04
6. Sol the Blue. 10:12
7. Ta Pa Da. 8:19
8. Anew. 4:04
9. Demian. 7:18
10. Strawberry Fields Forever. 3:54
11. Anar. 4:37
 
Лог создания рипа
Exact Audio Copy V1.0 beta 3 from 29. August 2011
EAC extraction logfile from 14. July 2015, 7:57
Tatran / Shvat
Used drive : HL-DT-STDVDRAM GSA-T50N Adapter: 1 ID: 0
Read mode : Secure
Utilize accurate stream : Yes
Defeat audio cache : Yes
Make use of C2 pointers : No
Read offset correction : 667
Overread into Lead-In and Lead-Out : No
Fill up missing offset samples with silence : Yes
Delete leading and trailing silent blocks : No
Null samples used in CRC calculations : Yes
Used interface : Native Win32 interface for Win NT & 2000
Gap handling : Appended to previous track
Used output format : User Defined Encoder
Selected bitrate : 1024 kBit/s
Quality : High
Add ID3 tag : No
Command line compressor : C:\Program Files\Exact Audio Copy\Flac\flac.exe
Additional command line options : -V -8 -T "Comment=ripped by Musicgate special for СПАМ -T "Genre=%genre%" -T "Artist=%artist%" -T "Title=%title%" -T "Album=%albumtitle%" -T "Date=%year%" -T "Tracknumber=%tracknr%" %source% -o Юst%
TOC of the extracted CD
Track | Start | Length | Start sector | End sector
---------------------------------------------------------
1 | 0:00.00 | 2:27.57 | 0 | 11081
2 | 2:27.57 | 3:40.47 | 11082 | 27628
3 | 6:08.29 | 3:51.45 | 27629 | 44998
4 | 9:59.74 | 7:34.08 | 44999 | 79056
5 | 17:34.07 | 4:04.70 | 79057 | 97426
6 | 21:39.02 | 10:12.35 | 97427 | 143361
7 | 31:51.37 | 8:19.15 | 143362 | 180801
8 | 40:10.52 | 4:04.67 | 180802 | 199168
9 | 44:15.44 | 7:18.09 | 199169 | 232027
10 | 51:33.53 | 3:54.54 | 232028 | 249631
11 | 55:28.32 | 4:38.06 | 249632 | 270487
Track 1
Filename C:\Musicgate for СПАМ - Shvat - 2014 (Self Released)\01 - The Utilitarian.wav
Pre-gap length 0:00:02.00
Peak level 94.0 %
Extraction speed 1.0 X
Track quality 100.0 %
Test CRC CFD65922
Copy CRC CFD65922
Accurately ripped (confidence 1) [DE9ED7B9] (AR v2)
Copy OK
Track 2
Filename C:\Musicgate for СПАМ - Shvat - 2014 (Self Released)\02 - Space Out.wav
Peak level 100.0 %
Extraction speed 1.2 X
Track quality 100.0 %
Test CRC EEBC68A2
Copy CRC EEBC68A2
Accurately ripped (confidence 1) [75AD6FAC] (AR v2)
Copy OK
Track 3
Filename C:\Musicgate for СПАМ - Shvat - 2014 (Self Released)\03 - Shore.wav
Peak level 94.0 %
Extraction speed 1.4 X
Track quality 100.0 %
Test CRC FF9937FF
Copy CRC FF9937FF
Accurately ripped (confidence 1) [01836B16] (AR v2)
Copy OK
Track 4
Filename C:\Musicgate for СПАМ - Shvat - 2014 (Self Released)\04 - Ww III.wav
Peak level 94.0 %
Extraction speed 1.7 X
Track quality 100.0 %
Test CRC 99B5483C
Copy CRC 99B5483C
Accurately ripped (confidence 1) [C4659BDD] (AR v2)
Copy OK
Track 5
Filename C:\Musicgate for СПАМ - Shvat - 2014 (Self Released)\05 - Shvat.wav
Peak level 94.0 %
Extraction speed 1.6 X
Track quality 100.0 %
Test CRC 580A8E35
Copy CRC 580A8E35
Accurately ripped (confidence 1) [402203CA] (AR v2)
Copy OK
Track 6
Filename C:\Musicgate for СПАМ - Shvat - 2014 (Self Released)\06 - Sol the Blue.wav
Peak level 94.0 %
Extraction speed 1.9 X
Track quality 100.0 %
Test CRC 0E5A0F7E
Copy CRC 0E5A0F7E
Accurately ripped (confidence 1) [63A020CF] (AR v2)
Copy OK
Track 7
Filename C:\Musicgate for СПАМ - Shvat - 2014 (Self Released)\07 - Ta Pa Da.wav
Peak level 94.0 %
Extraction speed 2.1 X
Track quality 100.0 %
Test CRC BEE75346
Copy CRC BEE75346
Accurately ripped (confidence 1) [C6F814E4] (AR v2)
Copy OK
Track 8
Filename C:\Musicgate for СПАМ - Shvat - 2014 (Self Released)\08 - Anew.wav
Peak level 94.0 %
Extraction speed 2.1 X
Track quality 100.0 %
Test CRC 72187C93
Copy CRC 72187C93
Accurately ripped (confidence 1) [1A4F824D] (AR v2)
Copy OK
Track 9
Filename C:\Musicgate for СПАМ - Shvat - 2014 (Self Released)\09 - Demian.wav
Peak level 94.0 %
Extraction speed 2.3 X
Track quality 100.0 %
Test CRC 9C9FECBF
Copy CRC 9C9FECBF
Accurately ripped (confidence 1) [7707495D] (AR v2)
Copy OK
Track 10
Filename C:\Musicgate for СПАМ - Shvat - 2014 (Self Released)\10 - Strawberry Fields Forever.wav
Peak level 94.0 %
Extraction speed 2.0 X
Track quality 99.9 %
Test CRC 2DE48438
Copy CRC 2DE48438
Accurately ripped (confidence 1) [FCED70F8] (AR v2)
Copy OK
Track 11
Filename C:\Musicgate for СПАМ - Shvat - 2014 (Self Released)\11 - Anar.wav
Peak level 94.0 %
Extraction speed 2.4 X
Track quality 100.0 %
Test CRC 19CDE9E8
Copy CRC 19CDE9E8
Accurately ripped (confidence 1) [2128DAB8] (AR v2)
Copy OK
All tracks accurately ripped
No errors occurred
End of status report
==== Log checksum E6B87C7B48AE363BED9B64A0B5936719C54078A58D1DD85032997FAD944577D2 ====
 
Содержание индексной карты (.CUE)
REM GENRE "Israeli Rock"
REM DATE 2014
REM DISCID 770E160B
REM COMMENT "ExactAudioCopy v1.0b3"
PERFORMER "Tatran"
TITLE "Shvat"
FILE "Range.wav" WAVE
TRACK 01 AUDIO
TITLE "The Utilitarian"
PERFORMER "Tatran"
ISRC USHM81463452
INDEX 01 00:00:00
TRACK 02 AUDIO
TITLE "Space Out"
PERFORMER "Tatran"
ISRC USHM81463453
INDEX 01 02:27:57
TRACK 03 AUDIO
TITLE "Shore"
PERFORMER "Tatran"
ISRC USHM81463454
INDEX 01 06:08:29
TRACK 04 AUDIO
TITLE "Ww III"
PERFORMER "Tatran"
ISRC USHM81463455
INDEX 01 09:59:74
TRACK 05 AUDIO
TITLE "Shvat"
PERFORMER "Tatran"
ISRC USHM81463456
INDEX 01 17:34:07
TRACK 06 AUDIO
TITLE "Sol the Blue"
PERFORMER "Tatran"
ISRC USHM81463457
INDEX 01 21:39:02
TRACK 07 AUDIO
TITLE "Ta Pa Da"
PERFORMER "Tatran"
ISRC USHM81463458
INDEX 01 31:51:37
TRACK 08 AUDIO
TITLE "Anew"
PERFORMER "Tatran"
ISRC USHM81463459
INDEX 01 40:10:52
TRACK 09 AUDIO
TITLE "Demian"
PERFORMER "Tatran"
ISRC USHM81463460
INDEX 01 44:15:44
TRACK 10 AUDIO
TITLE "Strawberry Fields Forever"
PERFORMER "Tatran"
ISRC USHM81463461
INDEX 01 51:33:53
TRACK 11 AUDIO
TITLE "Anar"
PERFORMER "Tatran"
ISRC USHM81463462
INDEX 01 55:28:32
 
Лог проверки качества
-----------------------
DON'T MODIFY THIS FILE
-----------------------
PERFORMER: auCDtect Task Manager, ver. 1.6.0 RC1 build 1.6.0.1
Copyright (c) 2008-2010 y-soft. All rights reserved
http://y-soft.org
ANALYZER: auCDtect: CD records authenticity detector, version 0.8.2
Copyright (c) 2004 Oleg Berngardt. All rights reserved.
Copyright (c) 2004 Alexander Djourik. All rights reserved.
FILE: 01 - The Utilitarian.flac
Size: 17934359 Hash: FFDEC72BE52954C3EA3B65754DC3521F Accuracy: -m0
Conclusion: CDDA 100%
Signature: E1EE2DCA1BF3CB2A0E8E76C334EBAACBAA9F0F62
FILE: 02 - Space Out.flac
Size: 23450275 Hash: 70D4AD6B3AA673DBA5ED378E4DE8DF89 Accuracy: -m0
Conclusion: CDDA 100%
Signature: 19E3BD5E8C79990C1B851D02DD332F6DBB34BA21
FILE: 03 - Shore.flac
Size: 26321466 Hash: 5BFA77FA97269350CDF257A19CA34FE9 Accuracy: -m0
Conclusion: CDDA 99%
Signature: 16751519355E633C8E9FBC9E90A623F16464E8E9
FILE: 04 - Ww III.flac
Size: 47349997 Hash: C53A38A92147A5FA8567D8020B119BE9 Accuracy: -m0
Conclusion: CDDA 100%
Signature: 1BC3A7D19D2E6B07627CB7AC144F097FFED2985F
FILE: 05 - Shvat.flac
Size: 23489986 Hash: F8683F724877BC500FD0E08A3D3FF8F4 Accuracy: -m0
Conclusion: CDDA 100%
Signature: 9BD4DBF39BE883BCAB7401135154AA4BC649C475
FILE: 06 - Sol the Blue.flac
Size: 60517348 Hash: 91EF6DA374B550272803474CAE852403 Accuracy: -m0
Conclusion: CDDA 99%
Signature: 5474871F44B7ADF1040AAAC91B419D70345A88EF
FILE: 07 - Ta Pa Da.flac
Size: 52163881 Hash: DF0EBDEDB5DDE11AD94C809ABA2B1E73 Accuracy: -m0
Conclusion: CDDA 100%
Signature: 31470EC6C1772DC1A6ABC37414FD7A026D5FAA50
FILE: 08 - Anew.flac
Size: 23223254 Hash: D130AF4BDB2DB175A2388131E57AD18F Accuracy: -m0
Conclusion: CDDA 100%
Signature: B77E64DA8DE714D9590A689D05989A3084807DC8
FILE: 09 - Demian.flac
Size: 45157931 Hash: C475F3E017208B7DC9C1AF33B6552767 Accuracy: -m0
Conclusion: CDDA 100%
Signature: 8BE5227E2B91D53120C32CDF95D2A8FBA18866EE
FILE: 10 - Strawberry Fields Forever.flac
Size: 24020430 Hash: 1EBEF19C8D6834365B4969FDC0843C60 Accuracy: -m0
Conclusion: CDDA 99%
Signature: 6D54F18E0852423947B84391BB91AF38ED2F0D57
FILE: 11 - Anar.flac
Size: 29648595 Hash: F339E08CDF2B2F0E68412697C3C4E7C2 Accuracy: -m0
Conclusion: CDDA 100%
Signature: 985012A0147AB808B968E841839974A66623DFBE
 
Об альбоме (сборнике)
Music written, arranged, produced and performed live by TATRAN
Tracks 3-9,11 composed by Offir Benjaminov, Tracks 1,2 composed by Tamuz Dekel and Offir Benjaminov, Track 10 composed by Lennon\McCartney
Recorded & Engineered by Noam Levinberg at Pluto Studios, Tel Aviv
Assistant Engineer: Offer Mapa
Mixed & Mastered by Lars Nilsson, Nilento Studio, Gothenburg
Production team in Nilento Studio, Jenny Nilsson and Michael Dahlvid
Executive Producer & Manager: Eyal Bason
Special Thanks Adi Benjaminov, Eyal Bason, Ora & Shani Ganbar
released 12 November 2014
 
Состав
- Offir Benjaminov / Bass
- Tamuz Dekel / Guitar
- Dan Mayo / Drums
Скачивание доступно после регистрации!!
Приватный:
Нет (DHT включён)
Размер:
376.15 Мб (394,425,462 байт) » файлов: 27
Участники:
0 раздают, 0 качают (0 участников всего)
Внешние участники:
--- [ Обновить ]
18:52
7
Нет комментариев. Ваш будет первым!