Поиск

(Ambient, Downtempo, Disco) [CD] VA - Ministry Of Sound - Tableism (2-CD) - 2011, FLAC (tracks+.cue), lossless

(Ambient, Downtempo, Disco) [CD] VA - Ministry Of Sound - Tableism (2-CD) - 2011, FLAC (tracks+.cue), lossless
Ministry Of Sound - Tableism (2-CD)
Жанр: Ambient, Downtempo, Disco
Носитель: CD
Страна-производитель диска (релиза): Australia
Год издания: 2011
Издатель (лейбл): Ministry Of Sound (Australia)
Номер по каталогу: MOSA143
Аудиокодек: FLAC (*.flac)
Тип рипа: tracks+.cue
Битрейт аудио: lossless
Продолжительность: 02:36:38
Источник (релизер): WRZmusic (wrzmusic)
Наличие сканов в содержимом раздачи: нет
Треклист:
 
CD 1: (01:19:35)
01 Jamie Lidell - All I Wanna Do [5:08]
02 Air France - No Way Down [3:26]
03 Toro Y Moi - Still Sound [3:38]
04 MGMT - Congratulations [3:48]
05 Mayer Hawthorne - Just Ain't Gonna Work Out [2:20]
06 Aloe Blacc - Green Lights [2:51]
07 Freddie Cruger and Anthony Mills Are Wildcookie - Something About Those Days [2:44]
08 Nightmares On Wax - You Wish [3:21]
09 Electric Empire - Baby Your Lovin' [3:44]
10 Jazzanova, Phonte Coleman - Look What You're Doin' to Me [2:59]
11 Cee Lo Green Feat. Phillip Bailey - Fool for You [3:38]
12 Seeker Lover Keeper - Light All My Lights [3:18]
13 Orelha Negra - M.I.R.I.A.M. [3:24]
14 Erykah Badu - Love [5:51]
15 S.E.C.T. Feat. Ben Westbeech - In the Park [4:15]
16 Footprintz - Utopia [3:42]
17 Shine 2009 - New Rules [5:02]
18 Wamdue Project Feat. Jessica Tonder - Paths [3:21]
19 Mario & Vidis Feat. Ernesto - Changed [4:30]
20 Groove Armada - Histroy (Love Mix) [3:30]
21 Azari & III - Into the Night (Nicolas Jaar Remix) [5:06]
 
Лог создания рипа
Exact Audio Copy V1.0 beta 3 from 29. August 2011
EAC extraction logfile from 24. July 2013, 22:07
Various / Tableism
Used drive : TSSTcorpCDDVDW SH-224BB Adapter: 0 ID: 0
Read mode : Secure
Utilize accurate stream : Yes
Defeat audio cache : Yes
Make use of C2 pointers : No
Read offset correction : 6
Overread into Lead-In and Lead-Out : No
Fill up missing offset samples with silence : Yes
Delete leading and trailing silent blocks : No
Null samples used in CRC calculations : Yes
Used interface : Native Win32 interface for Win NT & 2000
Gap handling : Appended to previous track
Used output format : User Defined Encoder
Selected bitrate : 1024 kBit/s
Quality : High
Add ID3 tag : No
Command line compressor : C:\Program Files (x86)\Exact Audio Copy\Flac\flac.exe
Additional command line options : -8 -V -T "ARTIST=%artist%" -T "TITLE=%title%" -T "ALBUM=%albumtitle%" -T "DATE=%year%" -T "TRACKNUMBER=%tracknr1%" -T "GENRE=%genre%" -T "PERFORMER=%albuminterpret%" -T "COMPOSER=%composer%" %haslyrics%--tag-from-file=LYRICS="%lyricsfile%"%haslyrics% -T "ALBUMARTIST=%albumartist%" -T "DISCNUMBER=%cdnumber%" -T "TOTALDISCS=%totalcds%" -T "TOTALTRACKS=%numtracks%" -T "COMMENT=%comment%" %source% -o %dest%
TOC of the extracted CD
Track | Start | Length | Start sector | End sector
---------------------------------------------------------
1 | 0:00.00 | 5:08.04 | 0 | 23103
2 | 5:08.04 | 3:26.34 | 23104 | 38587
3 | 8:34.38 | 3:37.48 | 38588 | 54910
4 | 12:12.11 | 3:48.11 | 54911 | 72021
5 | 16:00.22 | 2:20.03 | 72022 | 82524
6 | 18:20.25 | 2:50.44 | 82525 | 95318
7 | 21:10.69 | 2:44.08 | 95319 | 107626
8 | 23:55.02 | 3:20.52 | 107627 | 122678
9 | 27:15.54 | 3:44.05 | 122679 | 139483
10 | 30:59.59 | 2:58.50 | 139484 | 152883
11 | 33:58.34 | 3:37.74 | 152884 | 169232
12 | 37:36.33 | 3:18.09 | 169233 | 184091
13 | 40:54.42 | 3:24.05 | 184092 | 199396
14 | 44:18.47 | 5:51.08 | 199397 | 225729
15 | 50:09.55 | 4:15.10 | 225730 | 244864
16 | 54:24.65 | 3:41.57 | 244865 | 261496
17 | 58:06.47 | 5:02.09 | 261497 | 284155
18 | 63:08.56 | 3:20.55 | 284156 | 299210
19 | 66:29.36 | 4:29.49 | 299211 | 319434
20 | 70:59.10 | 3:30.23 | 319435 | 335207
21 | 74:29.33 | 5:05.41 | 335208 | 358123
Track 1
Filename E:\EAC rips\CD1\01 - Jamie Lidell - All I Wanna Do.wav
Pre-gap length 0:00:02.00
Peak level 98.8 %
Extraction speed 4.0 X
Track quality 99.9 %
Test CRC 10768F3E
Copy CRC 10768F3E
Accurately ripped (confidence 1) [094AEAE1] (AR v1)
Copy OK
Track 2
Filename E:\EAC rips\CD1\02 - Air France - No Way Down.wav
Peak level 98.8 %
Extraction speed 4.0 X
Track quality 99.9 %
Test CRC 26EDC77C
Copy CRC 26EDC77C
Accurately ripped (confidence 1) [03584774] (AR v1)
Copy OK
Track 3
Filename E:\EAC rips\CD1\03 - Toro Y Moi - Still Sound.wav
Peak level 98.8 %
Extraction speed 5.4 X
Track quality 100.0 %
Test CRC 9F1EEA75
Copy CRC 9F1EEA75
Accurately ripped (confidence 1) [D76744DE] (AR v1)
Copy OK
Track 4
Filename E:\EAC rips\CD1\04 - MGMT - Congratulations.wav
Peak level 98.8 %
Extraction speed 5.8 X
Track quality 100.0 %
Test CRC 3ABE746D
Copy CRC 3ABE746D
Accurately ripped (confidence 1) [2828614C] (AR v1)
Copy OK
Track 5
Filename E:\EAC rips\CD1\05 - Mayer Hawthorne - Just Ain't Gonna Work Out.wav
Peak level 98.8 %
Extraction speed 5.5 X
Track quality 100.0 %
Test CRC 1084D026
Copy CRC 1084D026
Accurately ripped (confidence 1) [E50D7B50] (AR v1)
Copy OK
Track 6
Filename E:\EAC rips\CD1\06 - Aloe Blacc - Green Lights.wav
Peak level 98.8 %
Extraction speed 5.9 X
Track quality 100.0 %
Test CRC 977A9A03
Copy CRC 977A9A03
Accurately ripped (confidence 1) [3B76B6D2] (AR v1)
Copy OK
Track 7
Filename E:\EAC rips\CD1\07 - Freddie Cruger and Anthony Mills Are Wildcookie - Something About Those Days.wav
Peak level 98.8 %
Extraction speed 6.3 X
Track quality 100.0 %
Test CRC 6FB18BFA
Copy CRC 6FB18BFA
Accurately ripped (confidence 1) [46628162] (AR v1)
Copy OK
Track 8
Filename E:\EAC rips\CD1\08 - Nightmares On Wax - You Wish.wav
Peak level 98.8 %
Extraction speed 6.6 X
Track quality 100.0 %
Test CRC 499BAE07
Copy CRC 499BAE07
Accurately ripped (confidence 1) [D2305E62] (AR v1)
Copy OK
Track 9
Filename E:\EAC rips\CD1\09 - Electric Empire - Baby Your Lovin'.wav
Peak level 98.8 %
Extraction speed 5.7 X
Track quality 99.9 %
Test CRC ADB3CB6C
Copy CRC ADB3CB6C
Accurately ripped (confidence 1) [A8523262] (AR v1)
Copy OK
Track 10
Filename E:\EAC rips\CD1\10 - Jazzanova, Phonte Coleman - Look What You're Doin' to Me.wav
Peak level 98.8 %
Extraction speed 7.2 X
Track quality 100.0 %
Test CRC 00121D05
Copy CRC 00121D05
Accurately ripped (confidence 1) [5F48A6B7] (AR v1)
Copy OK
Track 11
Filename E:\EAC rips\CD1\11 - Cee Lo Green Feat. Phillip Bailey - Fool for You.wav
Peak level 98.8 %
Extraction speed 7.6 X
Track quality 100.0 %
Test CRC 59D5231F
Copy CRC 59D5231F
Accurately ripped (confidence 1) [9EAE415C] (AR v1)
Copy OK
Track 12
Filename E:\EAC rips\CD1\12 - Seeker Lover Keeper - Light All My Lights.wav
Peak level 91.1 %
Extraction speed 7.6 X
Track quality 100.0 %
Test CRC CD1BD237
Copy CRC CD1BD237
Accurately ripped (confidence 1) [0F9CE59C] (AR v1)
Copy OK
Track 13
Filename E:\EAC rips\CD1\13 - Orelha Negra - M.I.R.I.A.M..wav
Peak level 98.8 %
Extraction speed 7.9 X
Track quality 100.0 %
Test CRC 9B7388C5
Copy CRC 9B7388C5
Accurately ripped (confidence 1) [12BA7741] (AR v1)
Copy OK
Track 14
Filename E:\EAC rips\CD1\14 - Erykah Badu - Love.wav
Peak level 88.0 %
Extraction speed 8.7 X
Track quality 100.0 %
Test CRC A1390790
Copy CRC A1390790
Accurately ripped (confidence 1) [B67DD1D1] (AR v1)
Copy OK
Track 15
Filename E:\EAC rips\CD1\15 - S.E.C.T. Feat. Ben Westbeech - In the Park.wav
Peak level 98.8 %
Extraction speed 8.7 X
Track quality 100.0 %
Test CRC 8AD18754
Copy CRC 8AD18754
Accurately ripped (confidence 1) [3D7E6C55] (AR v1)
Copy OK
Track 16
Filename E:\EAC rips\CD1\16 - Footprintz - Utopia.wav
Peak level 93.8 %
Extraction speed 6.8 X
Track quality 99.9 %
Test CRC 142105C9
Copy CRC 142105C9
Accurately ripped (confidence 1) [DBE8713A] (AR v1)
Copy OK
Track 17
Filename E:\EAC rips\CD1\17 - Shine 2009 - New Rules.wav
Peak level 96.1 %
Extraction speed 7.5 X
Track quality 99.9 %
Test CRC 4742C524
Copy CRC 4742C524
Accurately ripped (confidence 1) [6B8E0B3D] (AR v1)
Copy OK
Track 18
Filename E:\EAC rips\CD1\18 - Wamdue Project Feat. Jessica Tonder - Paths.wav
Peak level 98.8 %
Extraction speed 8.8 X
Track quality 100.0 %
Test CRC 71B8C21A
Copy CRC 71B8C21A
Accurately ripped (confidence 1) [97C8A76D] (AR v1)
Copy OK
Track 19
Filename E:\EAC rips\CD1\19 - Mario & Vidis Feat. Ernesto - Changed.wav
Peak level 90.4 %
Extraction speed 9.6 X
Track quality 100.0 %
Test CRC B2CB228C
Copy CRC B2CB228C
Accurately ripped (confidence 1) [5A48D4EE] (AR v1)
Copy OK
Track 20
Filename E:\EAC rips\CD1\20 - Groove Armada - Histroy (Love Mix).wav
Peak level 96.0 %
Extraction speed 9.5 X
Track quality 100.0 %
Test CRC A77554E5
Copy CRC A77554E5
Accurately ripped (confidence 1) [697CC12A] (AR v1)
Copy OK
Track 21
Filename E:\EAC rips\CD1\21 - Azari & III - Into the Night (Nicolas Jaar Remix).wav
Peak level 93.6 %
Extraction speed 10.1 X
Track quality 100.0 %
Test CRC 701E6ADE
Copy CRC 701E6ADE
Accurately ripped (confidence 1) [2BF29FDC] (AR v1)
Copy OK
All tracks accurately ripped
No errors occurred
End of status report
---- CUETools DB Plugin V2.1.3
[CTDB TOCID: KTfX9XCT0wzmBfByBZbiRHUelkE-] disk not present in database, Submit result: KTfX9XCT0wzmBfByBZbiRHUelkE- has been uploaded
==== Log checksum 9D3B55EAC51C9820B0B48449B9D342B059D9B9D4107AD64B4CA96916905CDABF ====
 
Содержание индексной карты (.CUE)
REM GENRE " Deep House, Breaks, Ambient, Downtempo, Disco "
REM DATE 2011
REM DISCID 1B12A615
REM COMMENT "ExactAudioCopy v1.0b3"
CATALOG 0602527796390
PERFORMER "Various"
TITLE "Tableism"
FILE "01 - Jamie Lidell - All I Wanna Do.wav" WAVE
TRACK 01 AUDIO
TITLE "All I Wanna Do"
PERFORMER "Jamie Lidell"
ISRC GBBPW0700242
INDEX 01 00:00:00
FILE "02 - Air France - No Way Down.wav" WAVE
TRACK 02 AUDIO
TITLE "No Way Down"
PERFORMER "Air France"
ISRC AUNV01100467
INDEX 01 00:00:00
FILE "03 - Toro Y Moi - Still Sound.wav" WAVE
TRACK 03 AUDIO
TITLE "Still Sound"
PERFORMER "Toro Y Moi"
ISRC AUVB01000060
INDEX 01 00:00:00
FILE "04 - MGMT - Congratulations.wav" WAVE
TRACK 04 AUDIO
TITLE "Congratulations"
PERFORMER "MGMT"
ISRC USSM11000450
INDEX 01 00:00:00
FILE "05 - Mayer Hawthorne - Just Ain't Gonna Work Out.wav" WAVE
TRACK 05 AUDIO
TITLE "Just Ain't Gonna Work Out"
PERFORMER "Mayer Hawthorne"
ISRC AUNV01100487
INDEX 01 00:00:00
FILE "06 - Aloe Blacc - Green Lights.wav" WAVE
TRACK 06 AUDIO
TITLE "Green Lights"
PERFORMER "Aloe Blacc"
ISRC US2S71045002
INDEX 01 00:00:00
FILE "07 - Freddie Cruger and Anthony Mills Are Wildcookie - Something About Those Days.wav" WAVE
TRACK 07 AUDIO
TITLE "Something About Those Days"
PERFORMER "Freddie Cruger and Anthony Mills Are Wildcookie"
ISRC GBEUE1002046
INDEX 01 00:00:00
FILE "08 - Nightmares On Wax - You Wish.wav" WAVE
TRACK 08 AUDIO
TITLE "You Wish"
PERFORMER "Nightmares On Wax"
ISRC GBBPW0500164
INDEX 01 00:00:00
FILE "09 - Electric Empire - Baby Your Lovin'.wav" WAVE
TRACK 09 AUDIO
TITLE "Baby Your Lovin'"
PERFORMER "Electric Empire"
ISRC AUNV01100468
INDEX 01 00:00:00
FILE "10 - Jazzanova, Phonte Coleman - Look What You're Doin' to Me.wav" WAVE
TRACK 10 AUDIO
TITLE "Look What You're Doin' to Me"
PERFORMER "Jazzanova, Phonte Coleman"
ISRC DEUM71102114
INDEX 01 00:00:00
FILE "11 - Cee Lo Green Feat. Phillip Bailey - Fool for You.wav" WAVE
TRACK 11 AUDIO
TITLE "Fool for You"
PERFORMER "Cee Lo Green Feat. Phillip Bailey"
ISRC USAT21002314
INDEX 01 00:00:00
FILE "12 - Seeker Lover Keeper - Light All My Lights.wav" WAVE
TRACK 12 AUDIO
TITLE "Light All My Lights"
PERFORMER "Seeker Lover Keeper"
ISRC USAT21002314
INDEX 01 00:00:00
FILE "13 - Orelha Negra - M.I.R.I.A.M..wav" WAVE
TRACK 13 AUDIO
TITLE "M.I.R.I.A.M."
PERFORMER "Orelha Negra"
ISRC PTMF11000029
INDEX 01 00:00:00
FILE "14 - Erykah Badu - Love.wav" WAVE
TRACK 14 AUDIO
TITLE "Love"
PERFORMER "Erykah Badu"
ISRC USUM71110568
INDEX 01 00:00:00
FILE "15 - S.E.C.T. Feat. Ben Westbeech - In the Park.wav" WAVE
TRACK 15 AUDIO
TITLE "In the Park"
PERFORMER "S.E.C.T. Feat. Ben Westbeech"
ISRC DEG931100011
INDEX 01 00:00:00
FILE "16 - Footprintz - Utopia.wav" WAVE
TRACK 16 AUDIO
TITLE "Utopia"
PERFORMER "Footprintz"
ISRC GBV8E1102001
INDEX 01 00:00:00
FILE "17 - Shine 2009 - New Rules.wav" WAVE
TRACK 17 AUDIO
TITLE "New Rules"
PERFORMER "Shine 2009"
ISRC FIEX81000003
INDEX 01 00:00:00
FILE "18 - Wamdue Project Feat. Jessica Tonder - Paths.wav" WAVE
TRACK 18 AUDIO
TITLE "Paths"
PERFORMER "Wamdue Project Feat. Jessica Tonder"
ISRC AUNV01100469
INDEX 01 00:00:00
FILE "19 - Mario & Vidis Feat. Ernesto - Changed.wav" WAVE
TRACK 19 AUDIO
TITLE "Changed"
PERFORMER "Mario & Vidis Feat. Ernesto"
ISRC AUFF00500265
INDEX 01 00:00:00
FILE "20 - Groove Armada - Histroy (Love Mix).wav" WAVE
TRACK 20 AUDIO
TITLE "Histroy (Love Mix)"
PERFORMER "Groove Armada"
ISRC GBCEJ1000168
INDEX 01 00:00:00
FILE "21 - Azari & III - Into the Night (Nicolas Jaar Remix).wav" WAVE
TRACK 21 AUDIO
TITLE "Into the Night (Nicolas Jaar Remix)"
PERFORMER "Azari & III"
ISRC AUUM71100619
INDEX 01 00:00:00
 
Лог проверки качества:
-----------------------
DON'T MODIFY THIS FILE
-----------------------
PERFORMER: auCDtect Task Manager, ver. 1.6.0 RC1 build 1.6.0.1
Copyright (c) 2008-2010 y-soft. All rights reserved
http://y-soft.org
ANALYZER: auCDtect: CD records authenticity detector, version 0.8.2
Copyright (c) 2004 Oleg Berngardt. All rights reserved.
Copyright (c) 2004 Alexander Djourik. All rights reserved.
FILE: 01 - Jamie Lidell - All I Wanna Do.flac
Size: 30524761 Hash: 7BBD6D4FBE4DFA8AD7939707433A0147 Accuracy: -m0
Conclusion: MPEG 100%
Signature: 90DA53A100C26F6ECAE325DA0D79C035130654B0
FILE: 02 - Air France - No Way Down.flac
Size: 23640182 Hash: C5891876A9F4525A63836E05A8F130B2 Accuracy: -m0
Conclusion: CDDA 99%
Signature: 67BC44BCE606AA4C62D6002A60E2819A465CA932
FILE: 03 - Toro Y Moi - Still Sound.flac
Size: 26245151 Hash: 371E3F0C9071BDE53E55AB25F79B1EFB Accuracy: -m0
Conclusion: CDDA 100%
Signature: 1FD8ADF3088832E8D8F76D8D6E1F070D15F82D19
FILE: 04 - MGMT - Congratulations.flac
Size: 25198617 Hash: 4D949EF0D35061775D9984485D80ABF0 Accuracy: -m0
Conclusion: CDDA 100%
Signature: 92C6CFDA5B7675D291CB69E64A223B8899CF2B30
FILE: 05 - Mayer Hawthorne - Just Ain't Gonna Work Out.flac
Size: 15760883 Hash: 1B9AE7F3C30093DDCD8CF76A54FB1DCD Accuracy: -m0
Conclusion: CDDA 100%
Signature: C3AB8A44CF43A822CC6DCC210FEC1C24D851E33A
FILE: 06 - Aloe Blacc - Green Lights.flac
Size: 18153812 Hash: E3059CCE8D133A2C7D621B2B4E832FE3 Accuracy: -m0
Conclusion: CDDA 100%
Signature: 185C80120E11F5215FD097234ECAC3790AF332C1
FILE: 07 - Freddie Cruger and Anthony Mills Are Wildcookie - Something About Those Days.flac
Size: 19475579 Hash: C6D42C213C5CE95208B5DE764635C139 Accuracy: -m0
Conclusion: CDDA 100%
Signature: 5F6AFDBAFDA497B7F272F450FD02BE7997C959A0
FILE: 08 - Nightmares On Wax - You Wish.flac
Size: 19126884 Hash: 5853D2EB54942BD6E2BD6B7F7982851A Accuracy: -m0
Conclusion: MPEG 99%
Signature: 74E96D588B7E0E57700E3E8EE6D9D820E55A4147
FILE: 09 - Electric Empire - Baby Your Lovin'.flac
Size: 25261578 Hash: B16E738E6F5300BC2451CEF141892DF8 Accuracy: -m0
Conclusion: CDDA 100%
Signature: 3AB9C80968F8353EE1BFC5B7B9057DF771BF2289
FILE: 10 - Jazzanova, Phonte Coleman - Look What You're Doin' to Me.flac
Size: 21961804 Hash: D1DB51B789F7F034160B5DA39D00C2E8 Accuracy: -m0
Conclusion: CDDA 99%
Signature: 9979C602482C28A415F07BF0BA3743BC0C654656
FILE: 11 - Cee Lo Green Feat. Phillip Bailey - Fool for You.flac
Size: 25504839 Hash: 7F7D1F31A5D8D9D4B2702E4DA38DA879 Accuracy: -m0
Conclusion: CDDA 100%
Signature: D538FEFBD3BF9CBC3256045F6D09EE7D4546451F
FILE: 12 - Seeker Lover Keeper - Light All My Lights.flac
Size: 21135386 Hash: ABE6EB4AF84B01677F4C1BA72EFDA635 Accuracy: -m0
Conclusion: CDDA 100%
Signature: 16F79D58C0632B020D066002A8DF7AFB49D59F89
FILE: 13 - Orelha Negra - M.I.R.I.A.M..flac
Size: 23580348 Hash: EDE12F48D1B781B7B35560764A791CBA Accuracy: -m0
Conclusion: CDDA 100%
Signature: 31D0128B3D93363060276F6951EC0D3067E7DD0B
FILE: 14 - Erykah Badu - Love.flac
Size: 33157378 Hash: 3EEE21FD7A70DFF2C9F5FE595E0E8D48 Accuracy: -m0
Conclusion: CDDA 100%
Signature: 988069869C3519C99D0143B9F723BB3205C20F03
FILE: 15 - S.E.C.T. Feat. Ben Westbeech - In the Park.flac
Size: 25206772 Hash: C772B9C3030A9BF5A27D260DC9E55C42 Accuracy: -m0
Conclusion: CDDA 99%
Signature: A9F1A42F478CB16E525DCF48A1B20B5194BB6374
FILE: 16 - Footprintz - Utopia.flac
Size: 20713896 Hash: BC28E9682B093ACF051E3DDB08D76C91 Accuracy: -m0
Conclusion: CDDA 100%
Signature: 22D70A520305AA09227D915D2A90826BD48EE61A
FILE: 17 - Shine 2009 - New Rules.flac
Size: 32789450 Hash: A692D1675E29A3671C54DE632D57088D Accuracy: -m0
Conclusion: CDDA 99%
Signature: 5175915101081A38233C9C9C1B0D53E3E60CFEA2
FILE: 18 - Wamdue Project Feat. Jessica Tonder - Paths.flac
Size: 21192053 Hash: E590434CCB12D8D012EA9DF2B7D23975 Accuracy: -m0
Conclusion: CDDA 100%
Signature: DDB46B61FA07141A2FC26FD57FDD67CC40308CD4
FILE: 19 - Mario & Vidis Feat. Ernesto - Changed.flac
Size: 28812585 Hash: 92D8BE8A673BC85A92AAC916EE720E1C Accuracy: -m0
Conclusion: CDDA 100%
Signature: BE78BFAC7D232C2519492683A9A7BFD05496F52D
FILE: 20 - Groove Armada - Histroy (Love Mix).flac
Size: 23332848 Hash: F3F28E8F5FC9FEE198E17534902DB32C Accuracy: -m0
Conclusion: CDDA 100%
Signature: F467BF00986306EC88CF19DB94C01C1AB4FFE711
FILE: 21 - Azari & III - Into the Night (Nicolas Jaar Remix).flac
Size: 29535296 Hash: 8A500F81B8B1FA068C32C5D89DFA30E4 Accuracy: -m0
Conclusion: CDDA 100%
Signature: 84BD9582FF14237C4AF118259E0978D710DE7F15
 
CD 2: (01:17:03)
01 Simon Cini - Sexy [2:41]
02 Bonobo - Kong [4:01]
03 Negghead - You (K'bonus Remix) [4:19]
04 Social Disco Club & Maia - The Way You Move (Greg Wilson Version) [3:57]
05 Matt Bianco - Half a Minute (Joey Negro Sunburnt Mix) [4:32]
06 Flevans Feat. Sarah Scott - Hold On (Hint Remix) [3:17]
07 Mark Ronson & The Business Intl - Somebody to Love Me [4:58]
08 Poolside - Do You Believe? [3:30]
09 Fete - The Islands [4:21]
10 Downtown Party Network - Get a Life [3:37]
11 Kings of Tomorrow feat. April - Take Me Back (Sandy Rivera's Original Mix) [2:51]
12 Playmode - Citylights [3:36]
13 Mario Basanov - Lonely Days [5:17]
14 Simian Mobile Disco - Cruel Intentions (Maurice Fulton Remix) [4:51]
15 Two Door Cinema Club - Something Good Can Work (Rac Remix) [3:29]
16 Smoove & Turrell - It's the Falling in Love [4:09]
17 Jazzanova, Ben Westbeech - I Can See [3:23]
18 Space Invadas Feat. Jade Macrae - Life [3:12]
19 Kraak & Smack feat. Ben Westbeech - Squeeze Me [3:09]
20 Beach House - Norway [3:52]
 
Лог создания рипа
Exact Audio Copy V1.0 beta 3 from 29. August 2011
EAC extraction logfile from 24. July 2013, 22:42
Various / Tableism
Used drive : TSSTcorpCDDVDW SH-224BB Adapter: 0 ID: 0
Read mode : Secure
Utilize accurate stream : Yes
Defeat audio cache : Yes
Make use of C2 pointers : No
Read offset correction : 6
Overread into Lead-In and Lead-Out : No
Fill up missing offset samples with silence : Yes
Delete leading and trailing silent blocks : No
Null samples used in CRC calculations : Yes
Used interface : Native Win32 interface for Win NT & 2000
Gap handling : Appended to previous track
Used output format : User Defined Encoder
Selected bitrate : 1024 kBit/s
Quality : High
Add ID3 tag : No
Command line compressor : C:\Program Files (x86)\Exact Audio Copy\Flac\flac.exe
Additional command line options : -8 -V -T "ARTIST=%artist%" -T "TITLE=%title%" -T "ALBUM=%albumtitle%" -T "DATE=%year%" -T "TRACKNUMBER=%tracknr1%" -T "GENRE=%genre%" -T "PERFORMER=%albuminterpret%" -T "COMPOSER=%composer%" %haslyrics%--tag-from-file=LYRICS="%lyricsfile%"%haslyrics% -T "ALBUMARTIST=%albumartist%" -T "DISCNUMBER=%cdnumber%" -T "TOTALDISCS=%totalcds%" -T "TOTALTRACKS=%numtracks%" -T "COMMENT=%comment%" %source% -o %dest%
TOC of the extracted CD
Track | Start | Length | Start sector | End sector
---------------------------------------------------------
1 | 0:00.00 | 2:40.43 | 0 | 12042
2 | 2:40.43 | 4:00.65 | 12043 | 30107
3 | 6:41.33 | 4:18.71 | 30108 | 49528
4 | 11:00.29 | 3:57.05 | 49529 | 67308
5 | 14:57.34 | 4:31.58 | 67309 | 87691
6 | 19:29.17 | 3:17.25 | 87692 | 102491
7 | 22:46.42 | 4:58.03 | 102492 | 124844
8 | 27:44.45 | 3:30.04 | 124845 | 140598
9 | 31:14.49 | 4:21.37 | 140599 | 160210
10 | 35:36.11 | 3:36.74 | 160211 | 176484
11 | 39:13.10 | 2:51.20 | 176485 | 189329
12 | 42:04.30 | 3:36.19 | 189330 | 205548
13 | 45:40.49 | 5:16.71 | 205549 | 229319
14 | 50:57.45 | 4:50.60 | 229320 | 251129
15 | 55:48.30 | 3:29.06 | 251130 | 266810
16 | 59:17.36 | 4:09.24 | 266811 | 285509
17 | 63:26.60 | 3:23.02 | 285510 | 300736
18 | 66:49.62 | 3:12.26 | 300737 | 315162
19 | 70:02.13 | 3:08.44 | 315163 | 329306
20 | 73:10.57 | 3:52.34 | 329307 | 346740
Track 1
Filename E:\EAC rips\CD2\01 - Simon Cini - Sexy.wav
Pre-gap length 0:00:02.00
Peak level 98.8 %
Extraction speed 4.5 X
Track quality 100.0 %
Test CRC B3344575
Copy CRC B3344575
Accurately ripped (confidence 1) [29A90D27] (AR v1)
Copy OK
Track 2
Filename E:\EAC rips\CD2\02 - Bonobo - Kong.wav
Peak level 98.8 %
Extraction speed 5.1 X
Track quality 100.0 %
Test CRC C3263294
Copy CRC C3263294
Accurately ripped (confidence 1) [0834083C] (AR v1)
Copy OK
Track 3
Filename E:\EAC rips\CD2\03 - Negghead - You (K'bonus Remix).wav
Peak level 98.8 %
Extraction speed 4.6 X
Track quality 99.9 %
Test CRC 5F293ADC
Copy CRC 5F293ADC
Accurately ripped (confidence 1) [C7DC67E5] (AR v1)
Copy OK
Track 4
Filename E:\EAC rips\CD2\04 - Social Disco Club & Maia - The Way You Move (Greg Wilson Version).wav
Peak level 98.8 %
Extraction speed 4.8 X
Track quality 99.9 %
Test CRC 9B5B401F
Copy CRC 9B5B401F
Accurately ripped (confidence 1) [573963C3] (AR v1)
Copy OK
Track 5
Filename E:\EAC rips\CD2\05 - Matt Bianco - Half a Minute (Joey Negro Sunburnt Mix).wav
Peak level 98.8 %
Extraction speed 6.5 X
Track quality 100.0 %
Test CRC B6362300
Copy CRC B6362300
Accurately ripped (confidence 1) [772180AF] (AR v1)
Copy OK
Track 6
Filename E:\EAC rips\CD2\06 - Flevans Feat. Sarah Scott - Hold On (Hint Remix).wav
Peak level 97.5 %
Extraction speed 6.2 X
Track quality 100.0 %
Test CRC E9037FAA
Copy CRC E9037FAA
Accurately ripped (confidence 1) [35F05124] (AR v1)
Copy OK
Track 7
Filename E:\EAC rips\CD2\07 - Mark Ronson & The Business Intl - Somebody to Love Me.wav
Peak level 98.8 %
Extraction speed 7.1 X
Track quality 100.0 %
Test CRC FAA0EB7C
Copy CRC FAA0EB7C
Accurately ripped (confidence 1) [F4F8F0EE] (AR v1)
Copy OK
Track 8
Filename E:\EAC rips\CD2\08 - Poolside - Do You Believe.wav
Peak level 98.8 %
Extraction speed 6.9 X
Track quality 100.0 %
Test CRC C40EE93D
Copy CRC C40EE93D
Accurately ripped (confidence 1) [8E701E46] (AR v1)
Copy OK
Track 9
Filename E:\EAC rips\CD2\09 - Fete - The Islands.wav
Peak level 98.8 %
Extraction speed 7.4 X
Track quality 100.0 %
Test CRC DAB28E20
Copy CRC DAB28E20
Accurately ripped (confidence 1) [8230F247] (AR v1)
Copy OK
Track 10
Filename E:\EAC rips\CD2\10 - Downtown Party Network - Get a Life.wav
Peak level 98.8 %
Extraction speed 7.4 X
Track quality 100.0 %
Test CRC 2DA05D60
Copy CRC 2DA05D60
Accurately ripped (confidence 1) [7EBC91F6] (AR v1)
Copy OK
Track 11
Filename E:\EAC rips\CD2\11 - Kings of Tomorrow feat. April - Take Me Back (Sandy Rivera's Original Mix).wav
Peak level 98.3 %
Extraction speed 7.5 X
Track quality 100.0 %
Test CRC FFC32CD3
Copy CRC FFC32CD3
Accurately ripped (confidence 1) [66E8F10F] (AR v1)
Copy OK
Track 12
Filename E:\EAC rips\CD2\12 - Playmode - Citylights.wav
Peak level 98.8 %
Extraction speed 8.0 X
Track quality 100.0 %
Test CRC 53AF8166
Copy CRC 53AF8166
Accurately ripped (confidence 1) [BBED8F18] (AR v1)
Copy OK
Track 13
Filename E:\EAC rips\CD2\13 - Mario Basanov - Lonely Days.wav
Peak level 98.8 %
Extraction speed 8.7 X
Track quality 100.0 %
Test CRC 40E08215
Copy CRC 40E08215
Accurately ripped (confidence 1) [D290ECB3] (AR v1)
Copy OK
Track 14
Filename E:\EAC rips\CD2\14 - Simian Mobile Disco - Cruel Intentions (Maurice Fulton Remix).wav
Peak level 98.8 %
Extraction speed 7.3 X
Track quality 99.9 %
Test CRC 7BCB4B61
Copy CRC 7BCB4B61
Accurately ripped (confidence 1) [89DA6DB7] (AR v1)
Copy OK
Track 15
Filename E:\EAC rips\CD2\15 - Two Door Cinema Club - Something Good Can Work (Rac Remix).wav
Peak level 98.8 %
Extraction speed 8.8 X
Track quality 100.0 %
Test CRC C2D665A8
Copy CRC C2D665A8
Accurately ripped (confidence 1) [CA227DE7] (AR v1)
Copy OK
Track 16
Filename E:\EAC rips\CD2\16 - Smoove & Turrell - It's the Falling in Love.wav
Peak level 98.8 %
Extraction speed 7.3 X
Track quality 99.9 %
Test CRC 60F851AF
Copy CRC 60F851AF
Accurately ripped (confidence 1) [BFD96C9E] (AR v1)
Copy OK
Track 17
Filename E:\EAC rips\CD2\17 - Jazzanova, Ben Westbeech - I Can See.wav
Peak level 98.8 %
Extraction speed 9.1 X
Track quality 100.0 %
Test CRC E293C034
Copy CRC E293C034
Accurately ripped (confidence 1) [98A77E6E] (AR v1)
Copy OK
Track 18
Filename E:\EAC rips\CD2\18 - Space Invadas Feat. Jade Macrae - Life.wav
Peak level 98.8 %
Extraction speed 9.2 X
Track quality 100.0 %
Test CRC BAAE0581
Copy CRC BAAE0581
Accurately ripped (confidence 1) [30B3D3FB] (AR v1)
Copy OK
Track 19
Filename E:\EAC rips\CD2\19 - Kraak & Smack feat. Ben Westbeech - Squeeze Me.wav
Peak level 98.8 %
Extraction speed 6.9 X
Track quality 99.9 %
Test CRC C1AF82F0
Copy CRC C1AF82F0
Accurately ripped (confidence 1) [887B4371] (AR v1)
Copy OK
Track 20
Filename E:\EAC rips\CD2\20 - Beach House - Norway.wav
Peak level 89.8 %
Extraction speed 9.7 X
Track quality 100.0 %
Test CRC 78FEAF35
Copy CRC 78FEAF35
Accurately ripped (confidence 1) [F2CDCA98] (AR v1)
Copy OK
All tracks accurately ripped
No errors occurred
End of status report
---- CUETools DB Plugin V2.1.3
[CTDB TOCID: Q0CUu7nwzeyTijvFJlxhfdLNzpk-] disk not present in database, Submit result: Q0CUu7nwzeyTijvFJlxhfdLNzpk- has been uploaded
==== Log checksum C4D4A70362D6A8B43D6908F9931A66626590E87232CFF505DC257ABAC1E625C9 ====
 
Содержание индексной карты (.CUE)
REM GENRE " Deep House, Breaks, Ambient, Downtempo, Disco "
REM DATE 2011
REM DISCID 22120F14
REM COMMENT "ExactAudioCopy v1.0b3"
CATALOG 0602527796406
PERFORMER "Various"
TITLE "Tableism"
FILE "01 - Simon Cini - Sexy.wav" WAVE
TRACK 01 AUDIO
TITLE "Sexy"
PERFORMER "Simon Cini"
ISRC DELM40901886
INDEX 01 00:00:00
FILE "02 - Bonobo - Kong.wav" WAVE
TRACK 02 AUDIO
TITLE "Kong"
PERFORMER "Bonobo"
ISRC GBCFB1000003
INDEX 01 00:00:00
FILE "03 - Negghead - You (K'bonus Remix).wav" WAVE
TRACK 03 AUDIO
TITLE "You (K'bonus Remix)"
PERFORMER "Negghead"
ISRC GBTCK1000004
INDEX 01 00:00:00
FILE "04 - Social Disco Club & Maia - The Way You Move (Greg Wilson Version).wav" WAVE
TRACK 04 AUDIO
TITLE "The Way You Move (Greg Wilson Version)"
PERFORMER "Social Disco Club & Maia"
ISRC GBPUP0932034
INDEX 01 00:00:00
FILE "05 - Matt Bianco - Half a Minute (Joey Negro Sunburnt Mix).wav" WAVE
TRACK 05 AUDIO
TITLE "Half a Minute (Joey Negro Sunburnt Mix)"
PERFORMER "Matt Bianco"
ISRC AUNV01100470
INDEX 01 00:00:00
FILE "06 - Flevans Feat. Sarah Scott - Hold On (Hint Remix).wav" WAVE
TRACK 06 AUDIO
TITLE "Hold On (Hint Remix)"
PERFORMER "Flevans Feat. Sarah Scott"
ISRC GBEUE0901755
INDEX 01 00:00:00
FILE "07 - Mark Ronson & The Business Intl - Somebody to Love Me.wav" WAVE
TRACK 07 AUDIO
TITLE "Somebody to Love Me"
PERFORMER "Mark Ronson & The Business Intl"
ISRC GBEUE0901755
INDEX 01 00:00:00
FILE "08 - Poolside - Do You Believe.wav" WAVE
TRACK 08 AUDIO
TITLE "Do You Believe?"
PERFORMER "Poolside"
ISRC AUFF00500255
INDEX 01 00:00:00
FILE "09 - Fete - The Islands.wav" WAVE
TRACK 09 AUDIO
TITLE "The Islands"
PERFORMER "Fete"
ISRC AUFF00500255
INDEX 01 00:00:00
FILE "10 - Downtown Party Network - Get a Life.wav" WAVE
TRACK 10 AUDIO
TITLE "Get a Life"
PERFORMER "Downtown Party Network"
ISRC GBHCD1132015
INDEX 01 00:00:00
FILE "11 - Kings of Tomorrow feat. April - Take Me Back (Sandy Rivera's Original Mix).wav" WAVE
TRACK 11 AUDIO
TITLE "Take Me Back (Sandy Rivera's Original Mix)"
PERFORMER "Kings of Tomorrow feat. April"
ISRC AUNV01100488
INDEX 01 00:00:00
FILE "12 - Playmode - Citylights.wav" WAVE
TRACK 12 AUDIO
TITLE "Citylights"
PERFORMER "Playmode"
ISRC DEGL61000026
INDEX 01 00:00:00
FILE "13 - Mario Basanov - Lonely Days.wav" WAVE
TRACK 13 AUDIO
TITLE "Lonely Days"
PERFORMER "Mario Basanov"
ISRC GB6LY0900044
INDEX 01 00:00:00
FILE "14 - Simian Mobile Disco - Cruel Intentions (Maurice Fulton Remix).wav" WAVE
TRACK 14 AUDIO
TITLE "Cruel Intentions (Maurice Fulton Remix)"
PERFORMER "Simian Mobile Disco"
ISRC GBDNH1100071
INDEX 01 00:00:00
FILE "15 - Two Door Cinema Club - Something Good Can Work (Rac Remix).wav" WAVE
TRACK 15 AUDIO
TITLE "Something Good Can Work (Rac Remix)"
PERFORMER "Two Door Cinema Club"
ISRC AUNV01100471
INDEX 01 00:00:00
FILE "16 - Smoove & Turrell - It's the Falling in Love.wav" WAVE
TRACK 16 AUDIO
TITLE "It's the Falling in Love"
PERFORMER "Smoove & Turrell"
ISRC GBFBC1100716
INDEX 01 00:00:00
FILE "17 - Jazzanova, Ben Westbeech - I Can See.wav" WAVE
TRACK 17 AUDIO
TITLE "I Can See"
PERFORMER "Jazzanova, Ben Westbeech"
ISRC DEUM71102115
INDEX 01 00:00:00
FILE "18 - Space Invadas Feat. Jade Macrae - Life.wav" WAVE
TRACK 18 AUDIO
TITLE "Life"
PERFORMER "Space Invadas Feat. Jade Macrae"
ISRC AUNV01100472
INDEX 01 00:00:00
FILE "19 - Kraak & Smack feat. Ben Westbeech - Squeeze Me.wav" WAVE
TRACK 19 AUDIO
TITLE "Squeeze Me"
PERFORMER "Kraak & Smack feat. Ben Westbeech"
ISRC GBFBC0800387
INDEX 01 00:00:00
FILE "20 - Beach House - Norway.wav" WAVE
TRACK 20 AUDIO
TITLE "Norway"
PERFORMER "Beach House"
ISRC AUVB01000003
INDEX 01 00:00:00
 
Лог проверки качества:
-----------------------
DON'T MODIFY THIS FILE
-----------------------
PERFORMER: auCDtect Task Manager, ver. 1.6.0 RC1 build 1.6.0.1
Copyright (c) 2008-2010 y-soft. All rights reserved
http://y-soft.org
ANALYZER: auCDtect: CD records authenticity detector, version 0.8.2
Copyright (c) 2004 Oleg Berngardt. All rights reserved.
Copyright (c) 2004 Alexander Djourik. All rights reserved.
FILE: 01 - Simon Cini - Sexy.flac
Size: 17846172 Hash: 81434B7F6BFF5A81E11DD6A9B5BCCBCF Accuracy: -m0
Conclusion: MPEG 85%
Signature: C60E50B1AF297B624A104BC3715987504049DC85
FILE: 02 - Bonobo - Kong.flac
Size: 28475948 Hash: D67EA95B06209C34EA6A4E9BB3F9D8CE Accuracy: -m0
Conclusion: CDDA 100%
Signature: 4DE614592FFB81ACEFEA4AB497DE23A1528769F4
FILE: 03 - Negghead - You (K'bonus Remix).flac
Size: 27963822 Hash: 2200AD69FAE7AE713FDBC38B686A929F Accuracy: -m0
Conclusion: CDDA 100%
Signature: 7B3DD685710C6222016E4F84EE3B965EBC678D97
FILE: 04 - Social Disco Club & Maia - The Way You Move (Greg Wilson Version).flac
Size: 26101335 Hash: 02F12598EC30E421C4272A082AD67432 Accuracy: -m0
Conclusion: CDDA 100%
Signature: EC9650594984BCBB8C7C4BDB9913836B6FA0CD18
FILE: 05 - Matt Bianco - Half a Minute (Joey Negro Sunburnt Mix).flac
Size: 29102882 Hash: 8B0DFE1C2F46474DC59718672A87A891 Accuracy: -m0
Conclusion: CDDA 100%
Signature: 932E05209ED023EB34DE826E3142CAA0C2F99B79
FILE: 06 - Flevans Feat. Sarah Scott - Hold On (Hint Remix).flac
Size: 21002758 Hash: 4D9452C0EE67BA11100306D61EE6C82C Accuracy: -m0
Conclusion: CDDA 62%
Signature: 6EEA4E8F6117350DC7CFB550F625337DB3D52CF9
FILE: 07 - Mark Ronson & The Business Intl - Somebody to Love Me.flac
Size: 32887204 Hash: 9A67359056B82FFD9691B8C270152401 Accuracy: -m0
Conclusion: CDDA 100%
Signature: FDD9AD2DE52C3EA465A9900B1A81122BC6B2751E
FILE: 08 - Poolside - Do You Believe.flac
Size: 24505568 Hash: AAFFC4C3A2A6342683D2CB8D0A4A734D Accuracy: -m0
Conclusion: CDDA 100%
Signature: B4A0D65763027C5AF1B8422988EBFE2AFB760484
FILE: 09 - Fete - The Islands.flac
Size: 25031545 Hash: 445E84FEA54A5E7E92C5BAE8F0C628EB Accuracy: -m0
Conclusion: CDDA 99%
Signature: 5B460E934A05B70C60B379C2832B410176A4FB4B
FILE: 10 - Downtown Party Network - Get a Life.flac
Size: 24116244 Hash: 483E91FE04C6E05C4793D41050C77409 Accuracy: -m0
Conclusion: CDDA 100%
Signature: 9BAC028650B7D85B203D511980932DE735B5F83D
FILE: 11 - Kings of Tomorrow feat. April - Take Me Back (Sandy Rivera's Original Mix).flac
Size: 17957019 Hash: 512E23B7D516A55167D8C9271D1D787F Accuracy: -m0
Conclusion: CDDA 100%
Signature: 6AF3FDCC21411DFEFF82FF556258EF9C48FB2626
FILE: 12 - Playmode - Citylights.flac
Size: 20907729 Hash: 73D50D05F294C803876634D7297B1FAA Accuracy: -m0
Conclusion: CDDA 100%
Signature: CCB5878CFE14BB827CAFE7C8B84525445E259018
FILE: 13 - Mario Basanov - Lonely Days.flac
Size: 33587947 Hash: DF336D016E178DBA13F56B156EB27885 Accuracy: -m0
Conclusion: CDDA 100%
Signature: F654ED6B7885500DC5DCE71C6E37DE0585C2ECB0
FILE: 14 - Simian Mobile Disco - Cruel Intentions (Maurice Fulton Remix).flac
Size: 31945393 Hash: 82CD556D78878D3E3A03BE8BA92671C9 Accuracy: -m0
Conclusion: CDDA 100%
Signature: 5B878DF7DB486C3C4E7BC4B60A7D0271898679E0
FILE: 15 - Two Door Cinema Club - Something Good Can Work (Rac Remix).flac
Size: 23528444 Hash: 7362BEA671AD70490621F733C4D144A6 Accuracy: -m0
Conclusion: CDDA 100%
Signature: 067319B76FA357EAA13631E50515E55EC97F0A2A
FILE: 16 - Smoove & Turrell - It's the Falling in Love.flac
Size: 30097121 Hash: 251984DD273BEAA129D883BF7B64EE80 Accuracy: -m0
Conclusion: CDDA 100%
Signature: 1F28837E7ABEB6AB4F722D1F9B7AE67FCB9AAFC8
FILE: 17 - Jazzanova, Ben Westbeech - I Can See.flac
Size: 22931616 Hash: 1147C520F975636A3CDDF64663158AFE Accuracy: -m0
Conclusion: MPEG 73%
Signature: 08C989028E2C56CD94D5C9A51D8F71A5B0BF831A
FILE: 18 - Space Invadas Feat. Jade Macrae - Life.flac
Size: 23305434 Hash: 6881FBBEB92940ECFC64390C15D9491E Accuracy: -m0
Conclusion: CDDA 99%
Signature: BBC24A18495A0521A5C88263B7C97A180830AB35
FILE: 19 - Kraak & Smack feat. Ben Westbeech - Squeeze Me.flac
Size: 20798384 Hash: C029474AA0004BB45E27E190B4831735 Accuracy: -m0
Conclusion: CDDA 100%
Signature: C9A95FAABC6E107BE7E78C164E13C6B11B85E52B
FILE: 20 - Beach House - Norway.flac
Size: 28153424 Hash: 32F7EAF7C04105AECB67E825B23C1616 Accuracy: -m0
Conclusion: CDDA 100%
Signature: E2FF5192ED5B0F4399700DE811E82935BF4E1D8E
 
Об альбоме (сборнике)
Скачивание доступно после регистрации!!
Приватный:
Нет (DHT включён)
Размер:
973.40 Мб (1,020,687,867 байт) » файлов: 48
Участники:
0 раздают, 0 качают (0 участников всего)
Внешние участники:
--- [ Обновить ]
18:50
1
RSS
Нет комментариев. Ваш будет первым!