Вы используете незарегистрированную версию компонента "Вкладки"!

Поиск

(Avantgarde, Modern Creative, Tzadik) Wadada Leo Smith - Lake Biwa - 2004, FLAC (tracks+.cue), lossless

(Avantgarde, Modern Creative, Tzadik) Wadada Leo Smith - Lake Biwa - 2004, FLAC (tracks+.cue), lossless
Треклист:
Wadada Leo Smith - Lake Biwa
Жанр: Avantgarde, Modern Creative, Tzadik
Год выпуска диска: 2004
Производитель диска: US
Аудио кодек: FLAC
Тип рипа: tracks+.cue
Битрейт аудио: lossless
Продолжительность: 69:37
Трэклист:
1 Lake Biwa: A Fullmoon Purewater Gold (11:12)
2 Sanai's Enclosed Garden Of The Truth (23:48)
3 Diamonback Serpent In A House Full Of Water And Still Rising (15:59)
4 Africana World (18:31)
Alto Saxophone - John Zorn
Bass - John Lindberg , Wes Brown
Cello - Erik Friedlander
Drums - Gerald Cleaver , Kwaku Kwaakye , Susie Ibarra
Guitar - Marc Ribot
Piano - Anthony Coleman , Craig Taborn , Jamie Saft , Yuko Fujiyama
Trumpet, Conductor - Wadada Leo Smith
Tuba - Marcus Rojas
Violin - Jennifer Choi
Доп. информация:
 
EAC log
Exact Audio Copy V0.99 prebeta 4 from 23. January 2008
EAC extraction logfile from 18. January 2009, 22:50
Smith Leo Wadada / Lake Biwa
Used drive : Optiarc DVD RW AD-7200A Adapter: 0 ID: 3
Read mode : Secure
Utilize accurate stream : Yes
Defeat audio cache : Yes
Make use of C2 pointers : No
Read offset correction : 48
Overread into Lead-In and Lead-Out : No
Fill up missing offset samples with silence : Yes
Delete leading and trailing silent blocks : No
Null samples used in CRC calculations : Yes
Used interface : Installed external ASPI interface
Gap handling : Appended to previous track
Used output format : User Defined Encoder
Selected bitrate : 640 kBit/s
Quality : High
Add ID3 tag : No
Command line compressor : C:\Program Files\Exact Audio Copy\flac.exe
Additional command line options : • -8 -A tukey(0.25) -A gauss(0.1875) -b 4096 -V -T "artist=%a" -T "title=%t" -T "album=%g" -T "date=%y" -T "tracknumber=%n" -T "genre=%m" %s --sector-align
TOC of the extracted CD
Track | Start | Length | Start sector | End sector
---------------------------------------------------------
1 | 0:00.00 | 11:14.59 | 0 | 50608
2 | 11:14.59 | 23:50.11 | 50609 | 157869
3 | 35:04.70 | 16:00.54 | 157870 | 229923
4 | 51:05.49 | 18:30.73 | 229924 | 313246
Track 1
Filename H:\Smith Leo Wadada - Lake Biwa\01 - Smith Leo Wadada - A fullmoon purewater Gold .wav
Pre-gap length 0:00:02.00
Peak level 98.8 %
Track quality 100.0 %
Test CRC FFBFADA2
Copy CRC FFBFADA2
Track not present in AccurateRip database
Copy OK
Track 2
Filename H:\Smith Leo Wadada - Lake Biwa\02 - Smith Leo Wadada - Sanaiґs enclosed Garden of the Truth .wav
Peak level 98.8 %
Track quality 100.0 %
Test CRC 889EF7F1
Copy CRC 889EF7F1
Track not present in AccurateRip database
Copy OK
Track 3
Filename H:\Smith Leo Wadada - Lake Biwa\03 - Smith Leo Wadada - Diamondback serpent in a House full of [Water and still rising .wav
Peak level 98.8 %
Track quality 100.0 %
Test CRC 089EDE54
Copy CRC 089EDE54
Track not present in AccurateRip database
Copy OK
Track 4
Filename H:\Smith Leo Wadada - Lake Biwa\04 - Smith Leo Wadada - Africana World .wav
Peak level 100.0 %
Track quality 100.0 %
Test CRC 0D73E6DD
Copy CRC 0D73E6DD
Track not present in AccurateRip database
Copy OK
None of the tracks are present in the AccurateRip database
No errors occurred
End of status report
 
Tzadik
Four ambitious new orchestral pieces written expressly for this release by one of the legendary masters of creative music. Featuring an incredible all-star band that includes Marc Ribot, Craig Taborn, Susie Ibarra, John Zorn, Jennifer Choi, Anthony Coleman, John Lindberg and many others, Lake Biwa presents some of Leo's most complex and stunningly original compositions. Lyrical and powerful orchestral colors, wild solos and, of course, plenty of searing trumpet work by one of the greatest players in the world. Still very much at the top of his form, this is one of Leo's most thrilling recordings.
Any questions -> support@pro-jazz.com. По всем вопросам пишите -> support@pro-jazz.com
09:06
166
Нет комментариев. Ваш будет первым!