Вы используете незарегистрированную версию компонента "Вкладки"!

Поиск

(Avant-Garde / Free Improvisation / Rune Grammofon) Spunk - Den Øverste (Overste) Toppen På En Blåmalt (Pa En Blamalt) Flaggstang - 2002, FLAC (image+.cue), lossless

(Avant-Garde / Free Improvisation / Rune Grammofon) Spunk - Den Øverste (Overste) Toppen På En Blåmalt (Pa En Blamalt) Flaggstang - 2002, FLAC (image+.cue), lossless
Треклист:
Spunk - Den Øverste Toppen På En Blåmalt Flaggstang
Жанр: Avant-Garde / Free Improvisation / Rune Grammofon
Год выпуска диска: 2002
Производитель диска: Norway (Rune Grammofon)
Аудио кодек: FLAC
Тип рипа: image+.cue
Битрейт аудио: lossless
Продолжительность: 59:58
Kristin Andersen trumpet and flutes
Lene Grenager cello
Maja Solveig Kjelstrup Ratkje voice and electronics
Hild Sofie Tafjord French horn and electronics
1. Kamelmusikk
2. Flagre
3. Møff
4. Togturen Til Andes
5. Epleslang
6. Wilderbeast
7. Retur
8. Norge I Rødt
9. Sing A-long
10. Home Party
11. Strøm
12. I Have a Dream
 
EAC Report
Exact Audio Copy V0.99 prebeta 4 from 23. January 2008
EAC extraction logfile from 28. February 2009, 23:19
Spunk / Den Øverste Toppen På En Blåmalt Flaggstang
Used drive : TSSTcorpCD/DVDW SH-S182M Adapter: 2 ID: 0
Read mode : Secure
Utilize accurate stream : Yes
Defeat audio cache : Yes
Make use of C2 pointers : No
Read offset correction : 6
Overread into Lead-In and Lead-Out : No
Fill up missing offset samples with silence : Yes
Delete leading and trailing silent blocks : No
Null samples used in CRC calculations : Yes
Used interface : Installed external ASPI interface
Used output format : User Defined Encoder
Selected bitrate : 1024 kBit/s
Quality : High
Add ID3 tag : No
Command line compressor : C:\Program Files\Exact Audio Copy\FLAC\FLAC.EXE
Additional command line options : -8 -V -T "ARTIST=%a" -T "TITLE=%t" -T "ALBUM=%g" -T "DATE=%y" -T "TRACKNUMBER=%n" -T "GENRE=%m" -T "COMMENT=%e" %s -o %d
TOC of the extracted CD
Track | Start | Length | Start sector | End sector
---------------------------------------------------------
1 | 0:00.00 | 6:37.59 | 0 | 29833
2 | 6:37.59 | 5:35.43 | 29834 | 55001
3 | 12:13.27 | 1:30.19 | 55002 | 61770
4 | 13:43.46 | 11:37.20 | 61771 | 114065
5 | 25:20.66 | 3:16.01 | 114066 | 128766
6 | 28:36.67 | 6:23.59 | 128767 | 157550
7 | 35:00.51 | 3:58.03 | 157551 | 175403
8 | 38:58.54 | 1:06.02 | 175404 | 180355
9 | 40:04.56 | 2:38.66 | 180356 | 192271
10 | 42:43.47 | 5:27.15 | 192272 | 216811
11 | 48:10.62 | 6:03.51 | 216812 | 244087
12 | 54:14.38 | 5:43.37 | 244088 | 269849
Range status and errors
Selected range
Filename C:\Documents and Settings\Igor\My Documents\My Music\eac\Spunk - Den Øverste Toppen På En Blåmalt Flaggstang.wav
Peak level 99.9 %
Range quality 100.0 %
Test CRC 2CD04D36
Copy CRC 2CD04D36
Copy OK
No errors occurred
AccurateRip summary
Track 1 accurately ripped (confidence 2) [E408788E]
Track 2 accurately ripped (confidence 2) [5B5627B8]
Track 3 accurately ripped (confidence 2) [0667D784]
Track 4 accurately ripped (confidence 2) [B43AE621]
Track 5 accurately ripped (confidence 2) [B21E0D17]
Track 6 accurately ripped (confidence 2) [3B00268B]
Track 7 accurately ripped (confidence 2) [9BB2E647]
Track 8 accurately ripped (confidence 2) [409B6CB2]
Track 9 accurately ripped (confidence 2) [BB79CB65]
Track 10 accurately ripped (confidence 2) [C6BECF13]
Track 11 accurately ripped (confidence 2) [A7699724]
Track 12 accurately ripped (confidence 2) [21786B72]
All tracks accurately ripped
End of status report
Any questions -> support@pro-jazz.com. По всем вопросам пишите -> support@pro-jazz.com
09:06
199
Нет комментариев. Ваш будет первым!