Вы используете незарегистрированную версию компонента "Вкладки"!

Поиск

(Avant-Garde Jazz) John Coltrane - Expression - 1967, FLAC (image+.cue), lossless

(Avant-Garde Jazz) John Coltrane - Expression - 1967, FLAC (image+.cue), lossless
Треклист:
John Coltrane - Expression
Жанр: Avant-Garde Jazz
Год выпуска диска: 1967
Производитель диска: USA
Аудио кодек: FLAC
Тип рипа: image+.cue
Битрейт аудио: lossless
Продолжительность: 51:19
Трэклист:
1. Ogunde 3:39
2. To Be 16:23
3. Offering 8:27
4. Expression 10:53
5. Number One 11:56
Доп. информация:
Этот альбом уже был выложен:
 
скрытый текст
но мой диск - более позднее переиздание, в кот. добавлена последняя композиция, не вошедшая в оригинальный альбом, выложенный на трекер.
 
Состав:
John Coltrane
Alice Coltrane
Jimmy Garrison
Rashied Ali
Pharoah Sanders
 
EAC log
Exact Audio Copy V0.99 prebeta 4 from 23. January 2008
EAC extraction logfile from 8. February 2009, 23:09
John Coltrane / Expression
Used drive : Optiarc DVD RW AD-5170A Adapter: 0 ID: 0
Read mode : Secure
Utilize accurate stream : Yes
Defeat audio cache : Yes
Make use of C2 pointers : No
Read offset correction : 48
Overread into Lead-In and Lead-Out : No
Fill up missing offset samples with silence : Yes
Delete leading and trailing silent blocks : No
Null samples used in CRC calculations : Yes
Used interface : Installed external ASPI interface
Used output format : User Defined Encoder
Selected bitrate : 768 kBit/s
Quality : High
Add ID3 tag : No
Command line compressor : C:\Program Files\Exact Audio Copy\FLAC\FLAC.EXE
Additional command line options : -8 -V -T "ARTIST=%a" -T "TITLE=%t" -T "ALBUM=%g" -T "DATE=%y" -T "TRACKNUMBER=%n" -T "GENRE=%m" -T "COMMENT=%e" %s -o %d
TOC of the extracted CD
Track | Start | Length | Start sector | End sector
---------------------------------------------------------
1 | 0:00.32 | 3:39.30 | 32 | 16486
2 | 3:39.62 | 16:22.65 | 16487 | 90201
3 | 20:02.52 | 8:27.30 | 90202 | 128256
4 | 28:30.07 | 10:53.10 | 128257 | 177241
5 | 39:23.17 | 11:56.03 | 177242 | 230944
Range status and errors
Selected range
Filename C:\music\eac\John Coltrane - Expression\John Coltrane - Expression.wav
Peak level 91.5 %
Range quality 100.0 %
Test CRC D206BB10
Copy CRC D206BB10
Copy OK
No errors occurred
AccurateRip summary
Track 1 accurately ripped (confidence 3) [25E02A77]
Track 2 accurately ripped (confidence 3) [36A7C9FC]
Track 3 accurately ripped (confidence 3) [DC974814]
Track 4 accurately ripped (confidence 3) [1F551B52]
Track 5 accurately ripped (confidence 3) [EAE1B1E7]
All tracks accurately ripped
End of status report
Any questions -> support@pro-jazz.com. По всем вопросам пишите -> support@pro-jazz.com
09:07
184
Нет комментариев. Ваш будет первым!