Вы используете незарегистрированную версию компонента "Вкладки"!

Поиск

(avant-jazz/modern creative) L`Orkestre des pas Perdus - Projet 9, 2007, FLAC (image+.cue), lossless

Треклист:
L`Orkestre des pas Perdus - Projet 9
Жанр: avant-jazz/modern creative
Производитель диска: Cross Curent Music/Canada
Аудио кодек: FLAC
Тип рипа: image+.cue
Битрейт аудио: lossless
Трэклист:
1. La Belle Affaire
2. Justige Borgne
3. Piece a conviction
4. Chameau #5
5. Deus ex machina
6. Gastro funk
7. Art piege
8. Panorama
9. Dos d`ane
10. Mecanique populaire
11. Couvre-feu
Доп. информация:
Bruno Blouin-Robert - cor frangais
Pierre Labbe - saxophone tenor, flute
Remi Leclerg - batterie, percussion
Jean-Denis Levasseur - saxophone soprano, clarinette. picollo
Roberto Murray - saxophone baryton
Jean Sabourin - sousaphone
Claude St-Jean - trombone, percussions
Maxime St-Pierre - trompette
Marc Villiard - saxophone alto
Рип с фирменного диска
Отчет ЕАС
 
скрытый текст
Exact Audio Copy V0.99 prebeta 5 from 4. May 2009
Отчёт EAC об извлечении, выполненном 22. июня 2010, 17:51
L'Orkestre des Pas Perdus / Projet 9
Дисковод: PIONEER DVD-RW DVR-111D Adapter: 1 ID: 0
Режим чтения : Достоверность
Использование точного потока : Да
Отключение кэша аудио : Да
Использование указателей C2 : Нет
Коррекция смещения при чтении : 48
Способность читать области Lead-in и Lead-out : Нет
Заполнение пропущенных сэмплов тишиной : Да
Удаление блоков с тишиной в начале и конце : Нет
При вычислениях CRC использовались нулевые сэмплы : Да
Интерфейс : Встроенный Win32-интерфейс для Win NT/2000
Выходной формат : Пользовательский кодировщик
Выбранный битрейт : 768 kBit/s
Качество : Высокий
Добавление ID3-тэга : Нет
Утилита сжатия : C:\Program Files\Exact Audio Copy\FLAC\FLAC.EXE
Дополнительные параметры : -6 -V -T "ARTIST=%a" -T "TITLE=%t" -T "ALBUM=%g" -T "DATE=%y" -T "TRACKNUMBER=%n" -T "GENRE=%m" -T "COMMENT=%e" %s -o %d
TOC извлечённого CD
Трек | Старт | Длительность | Начальный сектор | Конечный сектор
---------------------------------------------------------------------
1 | 0:00.00 | 4:08.22 | 0 | 18621
2 | 4:08.22 | 3:47.68 | 18622 | 35714
3 | 7:56.15 | 4:06.49 | 35715 | 54213
4 | 12:02.64 | 4:06.17 | 54214 | 72680
5 | 16:09.06 | 3:43.44 | 72681 | 89449
6 | 19:52.50 | 4:27.41 | 89450 | 109515
7 | 24:20.16 | 3:16.11 | 109516 | 124226
8 | 27:36.27 | 4:17.52 | 124227 | 143553
9 | 31:54.04 | 3:37.45 | 143554 | 159873
10 | 35:31.49 | 3:41.49 | 159874 | 176497
11 | 39:13.23 | 4:42.25 | 176498 | 197672
Характеристики диапазона извлечения и сообщения об ошибках
Выбранный диапазон
Имя файла C:\Documents and Settings\S\Мои документы\Torrent раздача\L'Orkestre des Pas Perdus - Projet 9.wav
Пиковый уровень 100.0 %
Качество диапазона 100.0 %
CRC копии 7A7CD6BD
Копирование... OK
Ошибок не произошло
AccurateRip: сводка
Трек 1 нет в базе данных
Трек 2 нет в базе данных
Трек 3 нет в базе данных
Трек 4 нет в базе данных
Трек 5 нет в базе данных
Трек 6 нет в базе данных
Трек 7 нет в базе данных
Трек 8 нет в базе данных
Трек 9 нет в базе данных
Трек 10 нет в базе данных
Трек 11 нет в базе данных
Ни одного трека нет в базе AccurateRip
Конец отчёта
CUE
 
скрытый текст
REM GENRE Avantgarde
REM DISCID 930A4B0B
REM COMMENT "ExactAudioCopy v0.99pb5"
PERFORMER "L'Orkestre des Pas Perdus"
TITLE "Projet 9"
FILE "L'Orkestre des Pas Perdus - Projet 9.flac" WAVE
TRACK 01 AUDIO
TITLE "La belle affaire"
PERFORMER "L'Orkestre des Pas Perdus"
INDEX 01 00:00:00
TRACK 02 AUDIO
TITLE "Justice Borgne"
PERFORMER "L'Orkestre des Pas Perdus"
INDEX 00 04:07:73
INDEX 01 04:08:22
TRACK 03 AUDIO
TITLE "Piиce а conviction"
PERFORMER "L'Orkestre des Pas Perdus"
INDEX 00 07:54:50
INDEX 01 07:56:15
TRACK 04 AUDIO
TITLE "Chameau no.5"
PERFORMER "L'Orkestre des Pas Perdus"
INDEX 00 12:01:41
INDEX 01 12:02:64
TRACK 05 AUDIO
TITLE "Deus ex-machina"
PERFORMER "L'Orkestre des Pas Perdus"
INDEX 00 16:07:05
INDEX 01 16:09:06
TRACK 06 AUDIO
TITLE "Gastro Funk"
PERFORMER "L'Orkestre des Pas Perdus"
INDEX 00 19:51:05
INDEX 01 19:52:50
TRACK 07 AUDIO
TITLE "Artpiиge"
PERFORMER "L'Orkestre des Pas Perdus"
INDEX 00 24:18:36
INDEX 01 24:20:16
TRACK 08 AUDIO
TITLE "Panorama"
PERFORMER "L'Orkestre des Pas Perdus"
INDEX 00 27:34:07
INDEX 01 27:36:27
TRACK 09 AUDIO
TITLE "Dos d'вne"
PERFORMER "L'Orkestre des Pas Perdus"
INDEX 00 31:51:55
INDEX 01 31:54:04
TRACK 10 AUDIO
TITLE "Mйcanique populaire"
PERFORMER "L'Orkestre des Pas Perdus"
INDEX 00 35:30:04
INDEX 01 35:31:49
TRACK 11 AUDIO
TITLE "Couvre feu"
PERFORMER "L'Orkestre des Pas Perdus"
INDEX 00 39:11:16
INDEX 01 39:13:23
Any questions -> support@pro-jazz.com. По всем вопросам пишите -> support@pro-jazz.com
00:43
182
Нет комментариев. Ваш будет первым!