Вы используете незарегистрированную версию компонента "Вкладки"!

Поиск

(Modern Free / Electro-Jazz / Avant-Garde) Groundtruther (Bobby Previte / Charlie Hunter / Greg Osby) - Latitude - 2004, FLAC (image+.cue), lossless

(Modern Free / Electro-Jazz / Avant-Garde) Groundtruther (Bobby Previte / Charlie Hunter / Greg Osby) - Latitude - 2004, FLAC (image+.cue), lossless
Треклист:
Groundtruther (Bobby Previte / Charlie Hunter / Greg Osby) - Latitude

Жанр: Modern Free / Electro-Jazz / Avant-Garde
Год выпуска диска: 2004
Производитель диска: Thirsty Ear Records 5750; USA
Аудио кодек: FLAC
Тип рипа: image+.cue
Битрейт аудио: lossless
Продолжительность: 47:43
Bobby Previte: drums, electronics
Charlie Hunter: 8-string guitar
Plus special guest
Greg Osby: alto saxophone
1. North Pole
2. Arctic Circle
3. 40th Parallel
4. Horse Latitudes North
5. Tropic of Cancer
6. Equator
7. Tropic of Capricorn
8. Horse Latitudes South
9. Tropic of Calms
10. Antarctic Circle
11. South Pole
 
Thirsty Ear Records
Latitude is the exciting first entry into a very special trilogy of recordings for Thirsty Ear's Blue Series: an ongoing collaboration between Charlie Hunter and Bobby Previte, two unique and formidable musicians with reputations that precede them. Each album is made special with the addition of a different guest, so that each recording documents a fresh and unique trio. Charlie Hunter is well-known as the world-class master of his custom-made 8-string guitar, on which he fills the role not only of guitarist but bassist as well. Bobby Previte is a drummer, composer and leader who has gained great critical recognition for all facets of his musicianship. Greg Osby is a Blue Note recording artist who, in addition to his own success as a leader, has lent his lyrical blowing skills on the alto sax to the music of such luminaries as Jack Dejohnette, Andrew Hill, Steve Coleman, and Jim Hall. On Latitude Osby's lyricism is morphed into countless shapes and colors, underpinned by Previte's use of electronic drums to trigger samples live and employ his percussion as a tonal instrument that intertwines with Hunter's endless rhythmic flow and funky melodicism. The result is a sound that speaks to jazz fans on both sides of the avantgarde/ mainstream divide, as well as those who enjoy electronica or the jam-band scene. Latitude is a great omen of what is to come in the rest of the trilogy. ~ Thirsty Ear Records
 
AMG Review
Groundtruther is not a band, actually, but a project created by guitarist/composer Charlie Hunter and drummer, composer, and electronics maestro Bobby Previte. There will be three albums in the Groundtruther catalog when it's all done, of which Latitude is the first -- Longitude and Altitude are the other titles in the series. In addition to the duo, each album will play host to a different guest instrumentalist, making each album a trio offering. On Latitude, it is saxophonist Greg Osby. Illustrating the conceptual nature of the outing are the track titles, "North Pole," "Arctic Circle," and "40th Parallel," all the way to "Tropic of Calms," and "South Pole" on the other end with many stops between. This is a freewheeling recording, improvisation based on rhythm and riff are the framework for each selection while Osby is the bridge not only between musicians, but the interpolator whatever language is being spoken. Strange sonics and beats come popping out of Previte's ether as Hunter struts and snakes around them with this jazz-o'-time-and-space warp style of bending not only individual notes but entire chords and riff figures into something exotic and new. Where he appears, Osby in his wonderfully articulated blues-meets-free jazz manner of soloing, offers historical weight to these proceedings, but also a melodic construction that roots them to jazz's heritage in the moment. Whether it's the freely improvised "North Pole," the shifty futuristic bluesy funk of "Horse Latitudes North," the steamy, slim-line funk of "Equator," or the shimmering, futuristic ambience in "Antarctic Circle," he brings the focus to the tradition itself, allowing his bandmates to extrapolate and bead it on geographical meditation. Osby is absent on "Tropic of Cancer," and the result is an excursion into fragmented, angular junglism, and Previte's breaks and Hunter's guitar spar and turn on a dime in some sort of humid futurist twilight zone. Latitude is an engaging if sometimes confounding listen and offers plenty of interest as to what the next two volumes will hold. ~ Thom Jurek, AMG
 
EAC Report
Exact Audio Copy V0.99 prebeta 4 from 23. January 2008
EAC extraction logfile from 20. June 2010, 15:10
Groundtruther / Latitude
Used drive : TSSTcorpCD/DVDW SH-S182M Adapter: 1 ID: 0
Read mode : Secure
Utilize accurate stream : Yes
Defeat audio cache : Yes
Make use of C2 pointers : No
Read offset correction : 6
Overread into Lead-In and Lead-Out : No
Fill up missing offset samples with silence : Yes
Delete leading and trailing silent blocks : No
Null samples used in CRC calculations : Yes
Used interface : Installed external ASPI interface
Used output format : User Defined Encoder
Selected bitrate : 1024 kBit/s
Quality : High
Add ID3 tag : No
Command line compressor : C:\Program Files\Exact Audio Copy\Flac\flac.exe
Additional command line options : -6 -V -T "ARTIST=%a" -T "TITLE=%t" -T "ALBUM=%g" -T "DATE=%y" -T "TRACKNUMBER=%n" -T "GENRE=%m" -T "COMMENT=EAC FLAC -6" %s
TOC of the extracted CD
Track | Start | Length | Start sector | End sector
---------------------------------------------------------
1 | 0:00.00 | 3:09.28 | 0 | 14202
2 | 3:09.28 | 5:20.00 | 14203 | 38202
3 | 8:29.28 | 4:26.09 | 38203 | 58161
4 | 12:55.37 | 1:54.66 | 58162 | 66777
5 | 14:50.28 | 3:33.72 | 66778 | 82824
6 | 18:24.25 | 6:34.61 | 82825 | 112435
7 | 24:59.11 | 2:08.71 | 112436 | 122106
8 | 27:08.07 | 3:34.02 | 122107 | 138158
9 | 30:42.09 | 3:57.06 | 138159 | 155939
10 | 34:39.15 | 8:53.61 | 155940 | 195975
11 | 43:33.01 | 4:09.40 | 195976 | 214690
Range status and errors
Selected range
Filename C:\Users\Igor\Music\eac\Groundtruther - Latitude.wav
Peak level 98.8 %
Range quality 100.0 %
Test CRC DB8CCB51
Copy CRC DB8CCB51
Copy OK
No errors occurred
AccurateRip summary
Track 1 accurately ripped (confidence 3) [1867CD23]
Track 2 accurately ripped (confidence 3) [DAE1CE44]
Track 3 accurately ripped (confidence 3) [1D3B53AE]
Track 4 accurately ripped (confidence 3) [016C6CA5]
Track 5 accurately ripped (confidence 3) [89961D41]
Track 6 accurately ripped (confidence 3) [ADA391CD]
Track 7 accurately ripped (confidence 3) [826F286B]
Track 8 accurately ripped (confidence 3) [971ECD82]
Track 9 accurately ripped (confidence 3) [FEFA1374]
Track 10 accurately ripped (confidence 3) [27815EB5]
Track 11 accurately ripped (confidence 3) [852C447E]
All tracks accurately ripped
End of status report

рип собственный
Первая часть трилогии.
Остальное раздавалось старшим поколением
Groundtruther - Longitude (2005) Uncle Remus
Groundtruther - Altitude (2007) babullka1930
Any questions -> support@pro-jazz.com. По всем вопросам пишите -> support@pro-jazz.com
00:43
145
Нет комментариев. Ваш будет первым!