Вы используете незарегистрированную версию компонента "Вкладки"!

Поиск

(avant-jazz/jazz-core/fusion) Jean Louis - Jean Louis - 2008, FLAC (image+.cue), lossless

Треклист:
Jean Louis - Jean Louis
Жанр: avant-jazz/jazz-core/fusion
Год выпуска диска: 2008
Производитель диска: Tranchemusic/France
Аудио кодек: FLAC
Тип рипа: image+.cue
Битрейт аудио: lossless
Трэклист:
1. Tourlac
2. Maximator
3. ...
4. Zakir
5. ...
6. Airbus
7. tranche
8. Chasseurs en transe
9. ...
10. Kasams
Доп. информация:
Aymeric Avice - trompes
Joachim Florent - contreviole
Francisco Pastacaldi - tambours
Собственный рип
Отчет ЕАС
 
скрытый текст
Exact Audio Copy V0.99 prebeta 5 from 4. May 2009
Отчёт EAC об извлечении, выполненном 22. июня 2010, 15:35
Jean Louis / Jean Louis
Дисковод: PIONEER DVD-RW DVR-111D Adapter: 1 ID: 0
Режим чтения : Достоверность
Использование точного потока : Да
Отключение кэша аудио : Да
Использование указателей C2 : Нет
Коррекция смещения при чтении : 48
Способность читать области Lead-in и Lead-out : Нет
Заполнение пропущенных сэмплов тишиной : Да
Удаление блоков с тишиной в начале и конце : Нет
При вычислениях CRC использовались нулевые сэмплы : Да
Интерфейс : Встроенный Win32-интерфейс для Win NT/2000
Выходной формат : Пользовательский кодировщик
Выбранный битрейт : 768 kBit/s
Качество : Высокий
Добавление ID3-тэга : Нет
Утилита сжатия : C:\Program Files\Exact Audio Copy\FLAC\FLAC.EXE
Дополнительные параметры : -6 -V -T "ARTIST=%a" -T "TITLE=%t" -T "ALBUM=%g" -T "DATE=%y" -T "TRACKNUMBER=%n" -T "GENRE=%m" -T "COMMENT=%e" %s -o %d
TOC извлечённого CD
Трек | Старт | Длительность | Начальный сектор | Конечный сектор
---------------------------------------------------------------------
1 | 0:00.00 | 6:57.26 | 0 | 31300
2 | 6:57.26 | 2:31.63 | 31301 | 42688
3 | 9:29.14 | 1:10.06 | 42689 | 47944
4 | 10:39.20 | 9:31.14 | 47945 | 90783
5 | 20:10.34 | 0:50.00 | 90784 | 94533
6 | 21:00.34 | 7:00.14 | 94534 | 126047
7 | 28:00.48 | 6:17.49 | 126048 | 154371
8 | 34:18.22 | 5:44.20 | 154372 | 180191
9 | 40:02.42 | 0:43.55 | 180192 | 183471
10 | 40:46.22 | 8:45.20 | 183472 | 222866
Характеристики диапазона извлечения и сообщения об ошибках
Выбранный диапазон
Имя файла C:\Documents and Settings\S\Мои документы\Torrent раздача\Jean Louis - Jean Louis.wav
Пиковый уровень 98.8 %
Качество диапазона 100.0 %
CRC копии 0D8EFBE8
Копирование... OK
Ошибок не произошло
AccurateRip: сводка
Трек 1 нет в базе данных
Трек 2 нет в базе данных
Трек 3 нет в базе данных
Трек 4 нет в базе данных
Трек 5 нет в базе данных
Трек 6 нет в базе данных
Трек 7 нет в базе данных
Трек 8 нет в базе данных
Трек 9 нет в базе данных
Трек 10 нет в базе данных
Ни одного трека нет в базе AccurateRip
Конец отчёта
CUE
 
скрытый текст
REM GENRE Avantgarde
REM DATE 2008
REM DISCID 6E0B9B0A
REM COMMENT "ExactAudioCopy v0.99pb5"
PERFORMER "Jean Louis"
TITLE "Jean Louis"
FILE "Jean Louis - Jean Louis.flac" WAVE
TRACK 01 AUDIO
TITLE "tourlac"
PERFORMER "Jean Louis"
INDEX 01 00:00:00
TRACK 02 AUDIO
TITLE "Maximator"
PERFORMER "Jean Louis"
INDEX 00 06:57:19
INDEX 01 06:57:26
TRACK 03 AUDIO
TITLE "..."
PERFORMER "Jean Louis"
INDEX 01 09:29:14
TRACK 04 AUDIO
TITLE "Zakir"
PERFORMER "Jean Louis"
INDEX 01 10:39:20
TRACK 05 AUDIO
TITLE "..."
PERFORMER "Jean Louis"
INDEX 00 20:10:16
INDEX 01 20:10:34
TRACK 06 AUDIO
TITLE "Airbus"
PERFORMER "Jean Louis"
INDEX 00 20:58:56
INDEX 01 21:00:34
TRACK 07 AUDIO
TITLE "Tranche"
PERFORMER "Jean Louis"
INDEX 01 28:00:48
TRACK 08 AUDIO
TITLE "Chasseurs en trance"
PERFORMER "Jean Louis"
INDEX 00 34:16:27
INDEX 01 34:18:22
TRACK 09 AUDIO
TITLE "..."
PERFORMER "Jean Louis"
INDEX 00 40:00:65
INDEX 01 40:02:42
TRACK 10 AUDIO
TITLE "Kasams"
PERFORMER "Jean Louis"
INDEX 01 40:46:22
Другие раздачи
http://rutracker.org/forum/search.php?uid=17163016
Any questions -> support@pro-jazz.com. По всем вопросам пишите -> support@pro-jazz.com
00:42
181
Нет комментариев. Ваш будет первым!