Вы используете незарегистрированную версию компонента "Вкладки"!

Поиск

(Avant-Garde / Modern Free / Modern Creative) Mike Reed's Loose Assembly - The Speed of Change - 2008, FLAC (image+.cue), lossless

Треклист:
Mike Reed's Loose Assembly - The Speed of Change

Жанр: Avant-Garde / Modern Free / Modern Creative
Год выпуска диска: 2008
Производитель диска: 482 Music 1062; USA
Аудио кодек: FLAC
Тип рипа: image+.cue
Битрейт аудио: lossless
Продолжительность: 42:37
Nicole Mitchell: flute, voice
Josh Abrams: bass
Jason Adasiewicz: vibraphone
Mike Reed: drums, percussion
Tomeka Reid: cello
Greg Ward: alto saxophone
1. The Speed of Change
2. Garvey's Ghost
3. Ground Swell
4. Tezetaye Antchi Lidj
5. "X"
6. Soul Stirrer
7. Exit Strategy
8. Picking up Greta
 
EAC Report
Exact Audio Copy V0.99 prebeta 4 from 23. January 2008
EAC extraction logfile from 10. June 2010, 23:27
Mike Reed's Loose Assembly / The Speed of Change
Used drive : TSSTcorpCD/DVDW SH-S182M Adapter: 1 ID: 1
Read mode : Secure
Utilize accurate stream : Yes
Defeat audio cache : Yes
Make use of C2 pointers : No
Read offset correction : 6
Overread into Lead-In and Lead-Out : No
Fill up missing offset samples with silence : Yes
Delete leading and trailing silent blocks : No
Null samples used in CRC calculations : Yes
Used interface : Installed external ASPI interface
Used output format : User Defined Encoder
Selected bitrate : 1024 kBit/s
Quality : High
Add ID3 tag : No
Command line compressor : C:\Program Files\Exact Audio Copy\Flac\flac.exe
Additional command line options : -6 -V -T "ARTIST=%a" -T "TITLE=%t" -T "ALBUM=%g" -T "DATE=%y" -T "TRACKNUMBER=%n" -T "GENRE=%m" -T "COMMENT=EAC FLAC -6" %s
TOC of the extracted CD
Track | Start | Length | Start sector | End sector
---------------------------------------------------------
1 | 0:00.00 | 7:26.34 | 0 | 33483
2 | 7:26.34 | 4:40.41 | 33484 | 54524
3 | 12:07.00 | 3:21.45 | 54525 | 69644
4 | 15:28.45 | 7:17.13 | 69645 | 102432
5 | 22:45.58 | 4:03.69 | 102433 | 120726
6 | 26:49.52 | 6:40.02 | 120727 | 150728
7 | 33:29.54 | 6:41.03 | 150729 | 180806
8 | 40:10.57 | 2:25.65 | 180807 | 191746
Range status and errors
Selected range
Filename C:\Users\Igor\Music\eac\Mike Reed's Loose Assembly - The Speed of Change.wav
Peak level 100.0 %
Range quality 100.0 %
Test CRC E35D33D2
Copy CRC E35D33D2
Copy OK
No errors occurred
AccurateRip summary
Track 1 accurately ripped (confidence 1) [FB43FB22]
Track 2 accurately ripped (confidence 1) [F8E6A62A]
Track 3 accurately ripped (confidence 1) [0F73A790]
Track 4 accurately ripped (confidence 1) [CAD5131B]
Track 5 accurately ripped (confidence 1) [2A16CA37]
Track 6 accurately ripped (confidence 1) [8AFE145E]
Track 7 accurately ripped (confidence 1) [711FD8D0]
Track 8 accurately ripped (confidence 1) [9005440D]
All tracks accurately ripped
End of status report

рип собственный
Any questions -> support@pro-jazz.com. По всем вопросам пишите -> support@pro-jazz.com
00:41
143
Нет комментариев. Ваш будет первым!