Вы используете незарегистрированную версию компонента "Вкладки"!

Поиск

(avant-jazz) Curlew (2 альбома) Bee-1991 , North America Rec 1985, FLAC (image+.cue), lossless

Треклист:
Curlew (2 альбома) Bee-1991 , North America-1985
Жанр: Avant-Garde Jazz
Производитель диска: США (Cuneiform)
Аудио кодек: FLAC
Тип рипа: image+.cue
Битрейт аудио: lossless
Продолжительность: 01:09:40 + 01:10:57
 
Bee - 1991: (THIS TITLE IS OUT OF PRINT)
Продолжительность: 01:09:40
Трэклист:
01. The March Or Ornette Went To Miles' House And They Didn't Get Along
02. St. Croix
03. JIM (To The James River)
04. It Must Be A Sign
05. To The Summer In Our Hearts
06. Saint Dog
07. The Hard Wood
08. The March (Reprise)
09. Rudders
10. Gary Brown
11. Kissing Goodbye
12. As You Said
Состав
George Cartwright-saxes
Tom Cora-cello
Davey Williams-guitar
Ann Rupel-bass, vocals
Pippin Barnett-drums
 
Отчет ЕАС
Exact Audio Copy V0.99 prebeta 3 from 28. July 2007
Отчёт EAC об извлечении, выполненном 21. марта 2009, 9:47
Curlew / Bee
Дисковод: YAMAHA CRW-F1E Adapter: 7 ID: 0
Режим чтения : Достоверность
Использование точного потока : Да
Отключение кэша аудио : Да
Использование указателей C2 : Нет
Коррекция смещения при чтении : 733
Способность читать области Lead-in и Lead-out : Нет
Заполнение пропущенных сэмплов тишиной : Да
Удаление блоков с тишиной в начале и конце : Нет
При вычислениях CRC использовались нулевые сэмплы : Да
Интерфейс : Встроенный Win32-интерфейс для Win NT/2000
Выходной формат : Пользовательский кодировщик
Выбранный битрейт : 256 kBit/s
Качество : Высокий
Добавление ID3-тэга : Нет
Утилита сжатия : C:\Program Files\flac-1.1.1-win\bin\flac.exe
Дополнительные параметры : -8 -V -T "ARTIST=%a" -T "TITLE=%t" -T "ALBUM=%g" -T "DATE=%y" -T "TRACKNUMBER=%n" -T "GENRE=%m" -T "COMMENT=EAC FLAC -8" %s
TOC извлечённого CD
Трек | Старт | Длительность | Начальный сектор | Конечный сектор
---------------------------------------------------------------------
1 | 0:00.00 | 2:57.07 | 0 | 13281
2 | 2:57.07 | 5:02.13 | 13282 | 35944
3 | 7:59.20 | 4:48.35 | 35945 | 57579
4 | 12:47.55 | 7:05.40 | 57580 | 89494
5 | 19:53.20 | 10:43.32 | 89495 | 137751
6 | 30:36.52 | 7:01.28 | 137752 | 169354
7 | 37:38.05 | 6:56.47 | 169355 | 200601
8 | 44:34.52 | 4:59.60 | 200602 | 223086
9 | 49:34.37 | 4:19.38 | 223087 | 242549
10 | 53:54.00 | 4:26.52 | 242550 | 262551
11 | 58:20.52 | 5:52.08 | 262552 | 288959
12 | 64:12.60 | 5:27.45 | 288960 | 313529
Характеристики диапазона извлечения и сообщения об ошибках
Выбранный диапазон
Имя файла I:\TorrentsUpload\Curlew\Curlew-Bee-1991\Curlew - Bee.wav
Пиковый уровень 99.8 %
Качество диапазона 100.0 %
CRC теста F6DFA23F
CRC копии F6DFA23F
Копирование... OK
Ошибок не произошло
AccurateRip: сводка
Трек 1 нет в базе данных
Трек 2 нет в базе данных
Трек 3 нет в базе данных
Трек 4 нет в базе данных
Трек 5 нет в базе данных
Трек 6 нет в базе данных
Трек 7 нет в базе данных
Трек 8 нет в базе данных
Трек 9 нет в базе данных
Трек 10 нет в базе данных
Трек 11 нет в базе данных
Трек 12 нет в базе данных
Ни одного трека нет в базе AccurateRip
Конец отчёта
 
North America (Recorded 1984-85, Release 2002)
Продолжительность: 01:10:57
Трэклист:
01. Ray
02. Oklahoma
03. Knee Songs 2
04. Person to Person
05. Time And a Half
06. Mink's Dream
07. Two-Day 'till Tomorrow
08. Light Sentence
09. First Bite
10. Moonlake
11. Shoats
12. Agitar, The Victim
13. Feelin' Good
14. Oklahoma
15. Shoats
16. Moonlake
17. Mink's Dream
18. The Ole Miss Exercise Song
19. First Bite
Состав
George Cartwright-alto, tenor saxes
Tom Cora-cello, accordions
Fred Frith-bass guitar, violin
Mark Howell-guitar
Rick Brown-drums
J.Pippin Barnett-drums
 
Отчет ЕАС
Exact Audio Copy V0.99 prebeta 3 from 28. July 2007
Отчёт EAC об извлечении, выполненном 21. марта 2009, 10:27
Curlew / North America
Дисковод: YAMAHA CRW-F1E Adapter: 7 ID: 0
Режим чтения : Достоверность
Использование точного потока : Да
Отключение кэша аудио : Да
Использование указателей C2 : Нет
Коррекция смещения при чтении : 733
Способность читать области Lead-in и Lead-out : Нет
Заполнение пропущенных сэмплов тишиной : Да
Удаление блоков с тишиной в начале и конце : Нет
При вычислениях CRC использовались нулевые сэмплы : Да
Интерфейс : Встроенный Win32-интерфейс для Win NT/2000
Выходной формат : Пользовательский кодировщик
Выбранный битрейт : 256 kBit/s
Качество : Высокий
Добавление ID3-тэга : Нет
Утилита сжатия : C:\Program Files\flac-1.1.1-win\bin\flac.exe
Дополнительные параметры : -8 -V -T "ARTIST=%a" -T "TITLE=%t" -T "ALBUM=%g" -T "DATE=%y" -T "TRACKNUMBER=%n" -T "GENRE=%m" -T "COMMENT=EAC FLAC -8" %s
TOC извлечённого CD
Трек | Старт | Длительность | Начальный сектор | Конечный сектор
---------------------------------------------------------------------
1 | 0:00.00 | 4:42.52 | 0 | 21201
2 | 4:42.52 | 3:54.55 | 21202 | 38806
3 | 8:37.32 | 2:11.18 | 38807 | 48649
4 | 10:48.50 | 2:21.02 | 48650 | 59226
5 | 13:09.52 | 2:56.28 | 59227 | 72454
6 | 16:06.05 | 3:05.30 | 72455 | 86359
7 | 19:11.35 | 1:33.10 | 86360 | 93344
8 | 20:44.45 | 2:40.15 | 93345 | 105359
9 | 23:24.60 | 2:51.65 | 105360 | 118249
10 | 26:16.50 | 5:15.30 | 118250 | 141904
11 | 31:32.05 | 2:38.02 | 141905 | 153756
12 | 34:10.07 | 5:16.28 | 153757 | 177484
13 | 39:26.35 | 3:06.30 | 177485 | 191464
14 | 42:32.65 | 6:18.42 | 191465 | 219856
15 | 48:51.32 | 3:57.05 | 219857 | 237636
16 | 52:48.37 | 4:49.08 | 237637 | 259319
17 | 57:37.45 | 3:53.05 | 259320 | 276799
18 | 61:30.50 | 5:54.20 | 276800 | 303369
19 | 67:24.70 | 3:32.07 | 303370 | 319276
Характеристики диапазона извлечения и сообщения об ошибках
Выбранный диапазон
Имя файла I:\TorrentsUpload\Curlew\Curlew - North America-1985\Curlew - North America.wav
Пиковый уровень 100.0 %
Качество диапазона 100.0 %
CRC теста A9208C9D
CRC копии A9208C9D
Копирование... OK
Ошибок не произошло
AccurateRip: сводка
Трек 1 нет в базе данных
Трек 2 нет в базе данных
Трек 3 нет в базе данных
Трек 4 нет в базе данных
Трек 5 нет в базе данных
Трек 6 нет в базе данных
Трек 7 нет в базе данных
Трек 8 нет в базе данных
Трек 9 нет в базе данных
Трек 10 нет в базе данных
Трек 11 нет в базе данных
Трек 12 нет в базе данных
Трек 13 нет в базе данных
Трек 14 нет в базе данных
Трек 15 нет в базе данных
Трек 16 нет в базе данных
Трек 17 нет в базе данных
Трек 18 нет в базе данных
Трек 19 нет в базе данных
Ни одного трека нет в базе AccurateRip
Конец отчёта
Доп. информация:
"Все музыканты всех альбомов Curlew были настоящими звездами в мире авант-музыки"
см. интервью с Джорджем Картрайтом (Curlew)
http://www.progmusic.ru/rus/modules.php?name=Sections&op=viewarticle&artid=57
Curlew на сайте Cuneiform:
http://www.cuneiformrecords.com/bandshtml/curlew.html
Все коврики внутри
Any questions -> support@pro-jazz.com. По всем вопросам пишите -> support@pro-jazz.com
09:24
182
Нет комментариев. Ваш будет первым!