Вы используете незарегистрированную версию компонента "Вкладки"!

Поиск

(Avant-Garde Jazz, Tzadik) John Zorn The Parachute Years 1977-1980 7cd box set - 1997, APE (image+.cue), lossless

(Avant-Garde Jazz, Tzadik) John Zorn The Parachute Years 1977-1980 7cd box set - 1997, APE (image+.cue), lossless
Треклист:
John Zorn The Parachute Years 1977-1980 7cd box set
Стиль: Avant-Garde Jazz
Жанр: инструментальные пьесы
Год выпуска диска: 1997
Производитель диска: США
Аудио кодек: APE
Тип рипа: image+.cue
Битрейт аудио: lossless
Продолжительность: [06:12:12]
 
Произведения и исполнители
 
lACROSSe (1977) (cd1&2)
(cd1)
1. Take 3 22:55
2. Take 4 18:55
3. Take 6 06:10
4. Take 1* 06:54
5. Take 2* 08:01
6. Take 5* 08:14Mark Abbott electronics
Polly Bradfield violin, viola and electric violin
Eugene Chadbourne acoustic and electric 6-strings, 12-strings, dobro and tiple
LaDonna Smith violin and viola
Davey Williams banjo and hollow-body electric guitar
John Zorn alto and soprano saxophones and Bb clarinet
On all takes, Bradfield and Williams are on the left channel, Chadbourne and Smith on the right.
Recorded June 10, 1978 at WKCR, NY by Allen Asaf(cd2)
1. Twins Version*
Eugene Chadbourne electric guitar
Henry Kaiser electric guitar
Bruce Ackley soprano saxophone
John Zorn alto saxophone
Recorded June 1977 in San Francisco
*previously unreleased
 
hOCKEy (1978) (cd3)
electric version
1. Take 1* 00:55
2. Take 2* 03:11
3. Take 3* 11:32
4. Take 4 11:18
Eugene Chadbourne electric guitar, personal effects
Wayne Horvitz amplified piano
Bob Ostertag electronics (Serge)
acoustic version
5. Take 2 03:43
6. Take 4 02:45
7. Take 11 00:54
8. Take 13 01:02
9. Take 1* 03:10
10. Take 3* 03:16
11. Take 5* 01:08
12. Take 6* 01:00
13. Take 7* 01:07
14. Take 8* 00:45
15. Take 9* 01:22
16. Take 10* 01:03
17. Take 12* 01:16
Polly Bradfield violin
Mark E. Miller percussion
John Zorn goose, duck and crow calls, clarinet mouthpiece
Recorded March 1, 1980 at Sorcerer Sound by Alan Fierstein
*previously unreleased
 
pOOl (1979) (cd4)
total time 50:45
Pool runs continuously through three IDsPolly Bradfield violin
Mark E. Miller percussion, contact microphones, vibraphone
Charles K. Noyes percussion, saw, knene
Bob Ostertag electronics (Serge)
John Zorn alto and soprano saxophones and Bb clarinets, game calls
Prompter Lesli Dalaba
Recorded March 1, 1980 at Sorcerer Sound by Alan Fierstein
 
aRCHERy (1979) (cd5,6&7)
(cd5) Archery Rehearsal
1. Part 1* 32:10
2. Part 2* 16:14
3. Part 3* 28:32
(cd6&7) Archery
1. A1-D2 20:35
2. D3-G1 20:07
3. G2-L4 23:53
4. L5-O14 23:29Robert Dick flute, bass flute, piccolo, game calls
George Lewis tenor trombone
John Zorn alto and soprano saxophones and Bb clarinet, game calls
Anthony Coleman Yamaha organ, electric piano, obsolete mutron and Big Muff
Wayne Horvitz Farfisa organ, harmonica, tape, electronics
Mark Kramer cheap organ, tapes, synthesizer, radio BeeGees rhythm machine, devices
Eugene Chadbourne Epiphone and Geoge Burns electric guitars, Gibson acoustic, Champ and Traynor amps, personal effects
Bill Horvitz electric guitar
Bill Laswell 4 and 6 string Fender basses
Polly Bradfield violin
Tom Cora cello
David Moss drums, voice, wood, water, cymbals, metal pieces, pods, steel drum, zither, hammered dulcimer, Bertola sound sculptures, toys, mylar
Prompter Mark Smith
Recorded by Martin Bisi and Michael Lytle, September 12 and 13, 1981 at OAO Studio, Brooklyn, Stereo layout and live two-track mix by Michael Lytle*previously unreleased
 
Отчёт EAC:
 
John Zorn / LACROSSE - Parachute Years
Exact Audio Copy V0.99 prebeta 4 from 23. January 2008
Отчёт EAC об извлечении, выполненном 22. марта 2009, 22:36
John Zorn / LACROSSE - Parrachute Years Disk 1
Дисковод: TOSHIBA DVD-ROM SD-M1712 Adapter: 1 ID: 1
Режим чтения : Достоверность
Использование точного потока : Да
Отключение кэша аудио : Да
Использование указателей C2 : Нет
Коррекция смещения при чтении : -472
Способность читать области Lead-in и Lead-out : Нет
Заполнение пропущенных сэмплов тишиной : Да
Удаление блоков с тишиной в начале и конце : Нет
При вычислениях CRC использовались нулевые сэмплы : Да
Интерфейс : Встроенный Win32-интерфейс для Win NT/2000
Выходной формат : Внутренние WAV-операции
Формат сэмплов : 44.100 Гц; 16 бит; стерео
TOC извлечённого CD
Трек | Старт | Длительность | Начальный сектор | Конечный сектор
---------------------------------------------------------------------
1 | 0:00.00 | 23:06.05 | 0 | 103954
2 | 23:06.05 | 19:06.05 | 103955 | 189909
3 | 42:12.10 | 6:20.00 | 189910 | 218409
4 | 48:32.10 | 7:01.07 | 218410 | 249991
5 | 55:33.17 | 8:08.43 | 249992 | 286634
6 | 63:41.60 | 8:16.50 | 286635 | 323884
Характеристики диапазона извлечения и сообщения об ошибках
Выбранный диапазон
Имя файла D:\torrents\1 готовые\John Zorn - Parrachute Years\John Zorn - LACROSSE - Parrachute Years Disk 1.wav
Пиковый уровень 99.9 %
Качество диапазона 99.9 %
CRC копии A697CE6E
Копирование... OK
Ошибок не произошло
Конец отчёта
 
John Zorn / LACROSSE(twins) - Parachute Years
Exact Audio Copy V0.99 prebeta 4 from 23. January 2008
Отчёт EAC об извлечении, выполненном 22. марта 2009, 23:14
John Zorn / LACROSSE(twins) - Parachute Years Disk 2
Дисковод: TOSHIBA DVD-ROM SD-M1712 Adapter: 1 ID: 1
Режим чтения : Достоверность
Использование точного потока : Да
Отключение кэша аудио : Да
Использование указателей C2 : Нет
Коррекция смещения при чтении : -472
Способность читать области Lead-in и Lead-out : Нет
Заполнение пропущенных сэмплов тишиной : Да
Удаление блоков с тишиной в начале и конце : Нет
При вычислениях CRC использовались нулевые сэмплы : Да
Интерфейс : Встроенный Win32-интерфейс для Win NT/2000
Выходной формат : Внутренние WAV-операции
Формат сэмплов : 44.100 Гц; 16 бит; стерео
TOC извлечённого CD
Трек | Старт | Длительность | Начальный сектор | Конечный сектор
---------------------------------------------------------------------
1 | 0:00.00 | 29:56.32 | 0 | 134731
Характеристики диапазона извлечения и сообщения об ошибках
Выбранный диапазон
Имя файла D:\torrents\1 готовые\John Zorn - Parrachute Years\John Zorn - LACROSSE(twins) - Parachute Years Disk 2.wav
Пиковый уровень 99.5 %
Качество диапазона 100.0 %
CRC копии 22D142A6
Копирование... OK
Ошибок не произошло
Конец отчёта
 
John Zorn / HOCKEY - Parachute Years
Exact Audio Copy V0.99 prebeta 4 from 23. January 2008
Отчёт EAC об извлечении, выполненном 22. марта 2009, 23:52
John Zorn / HOCKEY - Parachute Years Disk 3
Дисковод: TOSHIBA DVD-ROM SD-M1712 Adapter: 1 ID: 1
Режим чтения : Достоверность
Использование точного потока : Да
Отключение кэша аудио : Да
Использование указателей C2 : Нет
Коррекция смещения при чтении : -472
Способность читать области Lead-in и Lead-out : Нет
Заполнение пропущенных сэмплов тишиной : Да
Удаление блоков с тишиной в начале и конце : Нет
При вычислениях CRC использовались нулевые сэмплы : Да
Интерфейс : Встроенный Win32-интерфейс для Win NT/2000
Выходной формат : Внутренние WAV-операции
Формат сэмплов : 44.100 Гц; 16 бит; стерео
TOC извлечённого CD
Трек | Старт | Длительность | Начальный сектор | Конечный сектор
---------------------------------------------------------------------
1 | 0:00.00 | 1:13.00 | 0 | 5474
2 | 1:13.00 | 3:13.32 | 5475 | 19981
3 | 4:26.32 | 11:32.18 | 19982 | 71899
4 | 15:58.50 | 11:23.35 | 71900 | 123159
5 | 27:22.10 | 3:43.02 | 123160 | 139886
6 | 31:05.12 | 2:45.40 | 139887 | 152301
7 | 33:50.52 | 0:55.00 | 152302 | 156426
8 | 34:45.52 | 1:02.63 | 156427 | 161139
9 | 35:48.40 | 3:10.40 | 161140 | 175429
10 | 38:59.05 | 3:16.17 | 175430 | 190146
11 | 42:15.22 | 1:08.68 | 190147 | 195314
12 | 43:24.15 | 1:00.50 | 195315 | 199864
13 | 44:24.65 | 1:07.10 | 199865 | 204899
14 | 45:32.00 | 0:45.42 | 204900 | 208316
15 | 46:17.42 | 1:22.73 | 208317 | 214539
16 | 47:40.40 | 1:03.25 | 214540 | 219289
17 | 48:43.65 | 1:17.25 | 219290 | 225089
Характеристики диапазона извлечения и сообщения об ошибках
Выбранный диапазон
Имя файла D:\torrents\1 готовые\John Zorn - Parrachute Years\John Zorn - HOCKEY - Parachute Years Disk 3.wav
Пиковый уровень 98.8 %
Качество диапазона 99.9 %
CRC копии D7099956
Копирование... OK
Ошибок не произошло
Конец отчёта
 
John Zorn / POOL - Parachute Years
Exact Audio Copy V0.99 prebeta 4 from 23. January 2008
Отчёт EAC об извлечении, выполненном 23. марта 2009, 0:35
John Zorn / POOL - Parachute Years Disk 4
Дисковод: TOSHIBA DVD-ROM SD-M1712 Adapter: 1 ID: 1
Режим чтения : Достоверность
Использование точного потока : Да
Отключение кэша аудио : Да
Использование указателей C2 : Нет
Коррекция смещения при чтении : -472
Способность читать области Lead-in и Lead-out : Нет
Заполнение пропущенных сэмплов тишиной : Да
Удаление блоков с тишиной в начале и конце : Нет
При вычислениях CRC использовались нулевые сэмплы : Да
Интерфейс : Встроенный Win32-интерфейс для Win NT/2000
Выходной формат : Внутренние WAV-операции
Формат сэмплов : 44.100 Гц; 16 бит; стерео
TOC извлечённого CD
Трек | Старт | Длительность | Начальный сектор | Конечный сектор
---------------------------------------------------------------------
1 | 0:00.00 | 17:18.07 | 0 | 77856
2 | 17:18.07 | 16:18.60 | 77857 | 151266
3 | 33:36.67 | 17:27.13 | 151267 | 229804
4 | 51:04.05 | 4:08.60 | 229805 | 248464
Характеристики диапазона извлечения и сообщения об ошибках
Выбранный диапазон
Имя файла D:\torrents\1 готовые\John Zorn - Parrachute Years\John Zorn - POOL - Parachute Years Disk 4.wav
Пиковый уровень 99.4 %
Качество диапазона 100.0 %
CRC копии BAA7861B
Копирование... OK
Ошибок не произошло
Конец отчёта
 
John Zorn / ARCHERY REHEARSAL - Parachute Years
Exact Audio Copy V0.99 prebeta 4 from 23. January 2008
Отчёт EAC об извлечении, выполненном 23. марта 2009, 1:48
John Zorn / ARCHERY REHEARSAL - Parachute Years Disk 5
Дисковод: TOSHIBA DVD-ROM SD-M1712 Adapter: 1 ID: 1
Режим чтения : Достоверность
Использование точного потока : Да
Отключение кэша аудио : Да
Использование указателей C2 : Нет
Коррекция смещения при чтении : -472
Способность читать области Lead-in и Lead-out : Нет
Заполнение пропущенных сэмплов тишиной : Да
Удаление блоков с тишиной в начале и конце : Нет
При вычислениях CRC использовались нулевые сэмплы : Да
Интерфейс : Встроенный Win32-интерфейс для Win NT/2000
Выходной формат : Внутренние WAV-операции
Формат сэмплов : 44.100 Гц; 16 бит; стерео
TOC извлечённого CD
Трек | Старт | Длительность | Начальный сектор | Конечный сектор
---------------------------------------------------------------------
1 | 0:00.00 | 32:11.10 | 0 | 144834
2 | 32:11.10 | 16:14.70 | 144835 | 217954
3 | 48:26.05 | 28:33.10 | 217955 | 346439
Характеристики диапазона извлечения и сообщения об ошибках
Выбранный диапазон
Имя файла D:\torrents\1 готовые\John Zorn - Parrachute Years\John Zorn - ARCHERY REHEARSAL - Parachute Years Disk 5.wav
Пиковый уровень 99.5 %
Качество диапазона 99.9 %
CRC копии 910FE6C1
Копирование... OK
Ошибок не произошло
Конец отчёта
 
John Zorn / Archery, Disc 1 - Parachute Years
Exact Audio Copy V0.99 prebeta 4 from 23. January 2008
Отчёт EAC об извлечении, выполненном 23. марта 2009, 3:50
John Zorn / Archery, Disc 1
Дисковод: TOSHIBA DVD-ROM SD-M1712 Adapter: 1 ID: 1
Режим чтения : Достоверность
Использование точного потока : Да
Отключение кэша аудио : Да
Использование указателей C2 : Нет
Коррекция смещения при чтении : -472
Способность читать области Lead-in и Lead-out : Нет
Заполнение пропущенных сэмплов тишиной : Да
Удаление блоков с тишиной в начале и конце : Нет
При вычислениях CRC использовались нулевые сэмплы : Да
Интерфейс : Встроенный Win32-интерфейс для Win NT/2000
Выходной формат : Внутренние WAV-операции
Формат сэмплов : 44.100 Гц; 16 бит; стерео
TOC извлечённого CD
Трек | Старт | Длительность | Начальный сектор | Конечный сектор
---------------------------------------------------------------------
1 | 0:00.00 | 20:35.10 | 0 | 92634
2 | 20:35.10 | 20:08.62 | 92635 | 183296
Характеристики диапазона извлечения и сообщения об ошибках
Выбранный диапазон
Имя файла D:\torrents\1 готовые\John Zorn - Parrachute Years\John Zorn - ARCHERY, Disc 1- Parachute Years Disk 6.wav
Пиковый уровень 98.8 %
Качество диапазона 99.9 %
CRC копии 37518642
Копирование... OK
Ошибок не произошло
Конец отчёта
 
John Zorn / ARCHERY Disk 2 - Parachute Years
Exact Audio Copy V0.99 prebeta 4 from 23. January 2008
Отчёт EAC об извлечении, выполненном 23. марта 2009, 3:12
John Zorn / ARCHERY Disk 2 - Parachute Years Disk 7
Дисковод: TOSHIBA DVD-ROM SD-M1712 Adapter: 1 ID: 1
Режим чтения : Достоверность
Использование точного потока : Да
Отключение кэша аудио : Да
Использование указателей C2 : Нет
Коррекция смещения при чтении : -472
Способность читать области Lead-in и Lead-out : Нет
Заполнение пропущенных сэмплов тишиной : Да
Удаление блоков с тишиной в начале и конце : Нет
При вычислениях CRC использовались нулевые сэмплы : Да
Интерфейс : Встроенный Win32-интерфейс для Win NT/2000
Выходной формат : Внутренние WAV-операции
Формат сэмплов : 44.100 Гц; 16 бит; стерео
TOC извлечённого CD
Трек | Старт | Длительность | Начальный сектор | Конечный сектор
---------------------------------------------------------------------
1 | 0:00.00 | 23:52.70 | 0 | 107469
2 | 23:52.70 | 23:30.27 | 107470 | 213246
Характеристики диапазона извлечения и сообщения об ошибках
Выбранный диапазон
Имя файла D:\torrents\1 готовые\John Zorn - Parrachute Years\John Zorn - ARCHERY Disk 2 - Parachute Years Disk 7.wav
Пиковый уровень 98.8 %
Качество диапазона 100.0 %
CRC копии 1055F743
Копирование... OK
Ошибок не произошло
Конец отчёта
Any questions -> support@pro-jazz.com. По всем вопросам пишите -> support@pro-jazz.com
09:23
198
Нет комментариев. Ваш будет первым!