Вы используете незарегистрированную версию компонента "Вкладки"!

Поиск

(Modern Creative / Avant-Garde / Post-Bop / Knitting Factory) Chris Speed Trio - Iffy - 2000, FLAC (image+.cue), lossless

(Modern Creative / Avant-Garde / Post-Bop / Knitting Factory) Chris Speed Trio - Iffy - 2000, FLAC (image+.cue), lossless
Треклист:
Chris Speed Trio - Iffy
Жанр: Modern Creative / Avant-Garde / Post-Bop /Knitting Factory
Год выпуска диска: 2000
Производитель диска: USA (Knitting Factory KFW 275)
Аудио кодек: FLAC
Тип рипа: image+.cue
Битрейт аудио: lossless
Продолжительность: 43:56
Ben Perowsky drums
Chris Speed clarinet & tenor saxophone
Jamie Saft organ & synthesizers
1. A Little Odd
2. Graphic Ridiculous
3. FMU
4. Gina
5. Part III
6. Skew
7. Skipping Really High
8. Coo Coo
9. Slippers
 
EAC Report
Exact Audio Copy V0.99 prebeta 4 from 23. January 2008
EAC extraction logfile from 1. February 2009, 0:22
Chris Speed Trio / Iffy
Used drive : MATSHITADVD-RAM UJ-840S Adapter: 1 ID: 0
Read mode : Secure
Utilize accurate stream : Yes
Defeat audio cache : Yes
Make use of C2 pointers : No
Read offset correction : 102
Overread into Lead-In and Lead-Out : No
Fill up missing offset samples with silence : Yes
Delete leading and trailing silent blocks : No
Null samples used in CRC calculations : Yes
Used interface : Installed external ASPI interface
Used output format : User Defined Encoder
Selected bitrate : 320 kBit/s
Quality : High
Add ID3 tag : No
Command line compressor : C:\Program Files\Exact Audio Copy\FLAC\FLAC.EXE
Additional command line options : -8 -V -T "ARTIST=%a" -T "TITLE=%t" -T "ALBUM=%g" -T "DATE=%y" -T "TRACKNUMBER=%n" -T "GENRE=%m" -T "COMMENT=%e" %s -o %d
TOC of the extracted CD
Track | Start | Length | Start sector | End sector
---------------------------------------------------------
1 | 0:00.00 | 4:00.69 | 0 | 18068
2 | 4:00.69 | 4:41.70 | 18069 | 39213
3 | 8:42.64 | 6:08.48 | 39214 | 66861
4 | 14:51.37 | 5:04.45 | 66862 | 89706
5 | 19:56.07 | 2:35.61 | 89707 | 101392
6 | 22:31.68 | 6:48.27 | 101393 | 132019
7 | 29:20.20 | 4:28.27 | 132020 | 152146
8 | 33:48.47 | 4:37.42 | 152147 | 172963
9 | 38:26.14 | 5:29.72 | 172964 | 197710
Range status and errors
Selected range
Filename C:\Documents and Settings\Igor\My Documents\My Music\eac\Chris Speed Trio - Iffy.wav
Peak level 100.0 %
Range quality 99.9 %
Test CRC ACF04371
Copy CRC ACF04371
Copy OK
No errors occurred
AccurateRip summary
Track 1 not present in database
Track 2 not present in database
Track 3 not present in database
Track 4 not present in database
Track 5 not present in database
Track 6 not present in database
Track 7 not present in database
Track 8 not present in database
Track 9 not present in database
None of the tracks are present in the AccurateRip database
End of status report
По всем вопросам пишите личное сообщение пользователю M0p94ok.
09:23
170
Нет комментариев. Ваш будет первым!