Вы используете незарегистрированную версию компонента "Вкладки"!

Поиск

(Jazz,Avangard Jazz) John Zorn-Filmworks Anthology:"20 Years of Soundtrack Music 1986-2005" - 2005, FLAC (image+.cue), lossless

(Jazz,Avangard Jazz) John Zorn-Filmworks Anthology:"20 Years of Soundtrack Music 1986-2005" - 2005, FLAC (image+.cue), lossless
Треклист:
John Zorn Filmworks Anthology:
"20 Years of Soundtrack Music 1986-2005"
Жанр: Jazz, Avangard Jazz
Год выпуска диска: 2005
Производитель диска: Tzadik, USA
Аудио кодек: FLAC
Тип рипа: image+.cue
Битрейт аудио: lossless
Продолжительность: 01:16:08
Трэклист:
01. Main Title (1:05)
02. End Titles (2:01)
03. Yakisoba (1:17)
04. Punk Rock Hero (0:58)
05. Through The Night (1:32)
06. Surfing Samba (1:12)
07. Fanfare / Theme (3:30)
08. France (0:17)
09. Sweden (0:31)
10. Arsenal Dance Mix (4:00)
11. Main Title (1:36)
12. Wheelchair Racers (0:44)
13. Pueblo (9:02)
14. Lituus (1:06)
15. Fireworks (1:54)
16. End Titles (3:09)
17. Deseo (2:29)
18. Shanghai (2:38)
19. Trembling Before God (2:26)
20. Filming (5:52)
21. Shabbos Noir (2:10)
22. Chippy Charm (1:37)
23. Vocal Phase (3:53)
24. Shaolin Spirit (3:03)
25. Main Title (4:39)
26. Sekhel (Vocal Version) (4:58)
27. Protocols Of Zion (4:29)
28. Indonesia (4:01)
Доп. информация: Краткое описание данного CD : Данный сборник "приготовил" лично Дж.Зорн,категорично подходя к выбору материала.
 
инфа с сайта Tzadik
Film and film music has had a tremendous impact on the life and work of composer John Zorn, and his own soundtrack work reflects his affinity, love for and deep knowledge of the medium. As of this writing he has released sixteen volumes of film music-twenty years of work on over twenty-seven films, and dozens of commercials. Drawing upon his talented downtown musical community, the players on these recordings reads like a “who's who” of modern music: guitarists Bill Frisell, Marc Ribot and Arto Lindsay; keyboardists Jamie Saft, Wayne Horvitz, Peter Scherer and Anthony Coleman; string players Mark Feldman and Erik Friedlander; bassists Bill Laswell, Greg Cohen and Trevor Dunn; percussionists Joey Baron, Bobby Previte, Kenny Wollesen and Cyro Baptista-the list goes on and on. As one would expect, Zorn's methods in the soundtrack world are remarkably unique, and have resulted in some of the most unusual and creative music for films in the past several decades. This CD is an excellent introduction to the burgeoning sixteen volume series and features twenty-seven tracks handpicked by Zorn for this rare “best of” compilation. As a bonus is an unissued track from Zorn's most recent soundtrack release Workingman's Death.
Personnel:
Cyro Baptista
Joey Baron
Greg Cohen
Anthony Coleman
Trevor Dunn
Mark Feldman
Erik Friedlander
Bill Frisell
Wayne Horvitz
Bill Laswell
Arto Lindsay
Bobby Previte
Marc Ribot
Jamie Saft
Peter Scherer
Kenny Wollesen
and others
 
Отчёт EAC
Exact Audio Copy V0.99 prebeta 4 from 23. January 2008
Отчёт EAC об извлечении, выполненном 20. марта 2009, 14:57
John Zorn / FilmWorks Anthology_1986-2005
Дисковод: ASUS DRW-1814BLT Adapter: 1 ID: 0
Режим чтения : Достоверность
Использование точного потока : Да
Отключение кэша аудио : Да
Использование указателей C2 : Нет
Коррекция смещения при чтении : 6
Способность читать области Lead-in и Lead-out : Нет
Заполнение пропущенных сэмплов тишиной : Да
Удаление блоков с тишиной в начале и конце : Нет
При вычислениях CRC использовались нулевые сэмплы : Да
Интерфейс : Встроенный Win32-интерфейс для Win NT/2000
Выходной формат : Пользовательский кодировщик
Выбранный битрейт : 1024 kBit/s
Качество : Высокий
Добавление ID3-тэга : Нет
Утилита сжатия : C:\Program Files\Exact Audio Copy\FLAC\FLAC.EXE
Дополнительные параметры : -8 -V -T "ARTIST=%a" -T "TITLE=%t" -T "ALBUM=%g" -T "DATE=%y" -T "TRACKNUMBER=%n" -T "GENRE=%m" -T "COMMENT=%e" %s -o %d
TOC извлечённого CD
Трек | Старт | Длительность | Начальный сектор | Конечный сектор
---------------------------------------------------------------------
1 | 0:00.00 | 1:05.35 | 0 | 4909
2 | 1:05.35 | 2:00.64 | 4910 | 13973
3 | 3:06.24 | 1:17.17 | 13974 | 19765
4 | 4:23.41 | 0:57.65 | 19766 | 24105
5 | 5:21.31 | 1:31.70 | 24106 | 31000
6 | 6:53.26 | 1:11.62 | 31001 | 36387
7 | 8:05.13 | 3:30.33 | 36388 | 52170
8 | 11:35.46 | 0:16.61 | 52171 | 53431
9 | 11:52.32 | 0:30.47 | 53432 | 55728
10 | 12:23.04 | 3:59.53 | 55729 | 73706
11 | 16:22.57 | 1:36.32 | 73707 | 80938
12 | 17:59.14 | 0:43.57 | 80939 | 84220
13 | 18:42.71 | 9:01.68 | 84221 | 124863
14 | 27:44.64 | 1:06.03 | 124864 | 129816
15 | 28:50.67 | 1:53.43 | 129817 | 138334
16 | 30:44.35 | 3:09.14 | 138335 | 152523
17 | 33:53.49 | 2:28.42 | 152524 | 163665
18 | 36:22.16 | 2:38.16 | 163666 | 175531
19 | 39:00.32 | 2:26.04 | 175532 | 186485
20 | 41:26.36 | 5:51.69 | 186486 | 212879
21 | 47:18.30 | 2:09.62 | 212880 | 222616
22 | 49:28.17 | 1:36.45 | 222617 | 229861
23 | 51:04.62 | 3:53.10 | 229862 | 247346
24 | 54:57.72 | 3:02.71 | 247347 | 261067
25 | 58:00.68 | 4:38.71 | 261068 | 281988
26 | 62:39.64 | 4:57.69 | 281989 | 304332
27 | 67:37.58 | 4:29.36 | 304333 | 324543
28 | 72:07.19 | 4:01.31 | 324544 | 342649
Характеристики диапазона извлечения и сообщения об ошибках
Выбранный диапазон
Имя файла I:\Music\John Zorn - FilmWorks Anthology_1986-2005.wav
Пиковый уровень 98.8 %
Качество диапазона 100.0 %
CRC теста E61B9E20
CRC копии E61B9E20
Копирование... OK
Ошибок не произошло
Конец отчёта
 
Tau Analyzer
Рип с CD из личной фонотеки. Covers прилагаются.
Any questions -> support@pro-jazz.com. По всем вопросам пишите -> support@pro-jazz.com
09:25
165
Нет комментариев. Ваш будет первым!