Поиск

(Avant-Garde, Vocal Jazz, Folk-Jazz) Iva Bittová (Iva Bittova) With Bang On A Can All-Stars - Elida - 2005, FLAC (tracks+.cue), lossless

(Avant-Garde, Vocal Jazz, Folk-Jazz) Iva Bittová (Iva Bittova) With Bang On A Can All-Stars - Elida - 2005, FLAC (tracks+.cue), lossless
Треклист:
Iva Bittová (Iva Bittova) With Bang On A Can All-Stars - Elida
Жанр: Avant-Garde, Vocal Jazz, Folk-Jazz
Год выпуска диска: 2005
Аудио кодек: FLAC
Тип рипа: tracks+.cue
Битрейт аудио: lossless
Продолжительность: 0:46:38
Трэклист:
01. Malíri V Paríži (2:45)
02. Bolíš Me, Lásko (5:50)
03. Ladná Celadná (4:20)
04. Samota (4:09)
05. Hopáhop Tálitá (9:01)
06. Zapískej (9:28)
07. Elida (5:10)
08. Presto (2:35)
09. Nejsi (3:21)
 
EAC log
Exact Audio Copy V0.99 prebeta 5 from 4. May 2009
EAC extraction logfile from 4. February 2010, 23:23
Iva Bittovб With Bang On A Can All-Stars / Elida
Used drive : HL-DT-STDVDRAM GSA-T20L Adapter: 1 ID: 0
Read mode : Secure
Utilize accurate stream : Yes
Defeat audio cache : Yes
Make use of C2 pointers : No
Read offset correction : 667
Overread into Lead-In and Lead-Out : No
Fill up missing offset samples with silence : Yes
Delete leading and trailing silent blocks : No
Null samples used in CRC calculations : Yes
Used interface : Native Win32 interface for Win NT & 2000
Gap handling : Appended to previous track
Used output format : User Defined Encoder
Selected bitrate : 768 kBit/s
Quality : High
Add ID3 tag : No
Command line compressor : C:\Program Files\Exact Audio Copy\Flac\flac.exe
Additional command line options : -V -8 -T "artist=%a" -T "title=%t" -T "album=%g" -T "date=%y" -T "tracknumber=%n" -T "genre=%m" %s
TOC of the extracted CD
Track | Start | Length | Start sector | End sector
---------------------------------------------------------
1 | 0:00.00 | 2:44.52 | 0 | 12351
2 | 2:44.52 | 5:50.08 | 12352 | 38609
3 | 8:34.60 | 4:19.57 | 38610 | 58091
4 | 12:54.42 | 4:09.13 | 58092 | 76779
5 | 17:03.55 | 9:00.65 | 76780 | 117344
6 | 26:04.45 | 9:28.25 | 117345 | 159969
7 | 35:32.70 | 5:09.40 | 159970 | 183184
8 | 40:42.35 | 2:35.30 | 183185 | 194839
9 | 43:17.65 | 3:20.45 | 194840 | 209884
Track 1
Filename C:\Users\Josh\What.cd\Elida\FLAC\Iva Bittovб With Bang On A Can All-Stars - 2005 - Elida\01 - Malнri V Parнћi.wav
Pre-gap length 0:00:02.00
Peak level 98.8 %
Track quality 99.9 %
Test CRC C8E42ABB
Copy CRC C8E42ABB
Accurately ripped (confidence 2) [DED1E2F5]
Copy OK
Track 2
Filename C:\Users\Josh\What.cd\Elida\FLAC\Iva Bittovб With Bang On A Can All-Stars - 2005 - Elida\02 - Bolнљ Me, Lбsko.wav
Pre-gap length 0:00:01.76
Peak level 99.1 %
Track quality 100.0 %
Test CRC C25F3F0A
Copy CRC C25F3F0A
Accurately ripped (confidence 2) [E9C675CD]
Copy OK
Track 3
Filename C:\Users\Josh\What.cd\Elida\FLAC\Iva Bittovб With Bang On A Can All-Stars - 2005 - Elida\03 - Ladnб Celadnб.wav
Peak level 98.8 %
Track quality 100.0 %
Test CRC F470D6B2
Copy CRC F470D6B2
Accurately ripped (confidence 2) [60B2E330]
Copy OK
Track 4
Filename C:\Users\Josh\What.cd\Elida\FLAC\Iva Bittovб With Bang On A Can All-Stars - 2005 - Elida\04 - Samota.wav
Pre-gap length 0:00:01.80
Peak level 89.6 %
Track quality 100.0 %
Test CRC 6C677181
Copy CRC 6C677181
Accurately ripped (confidence 2) [3FE34E49]
Copy OK
Track 5
Filename C:\Users\Josh\What.cd\Elida\FLAC\Iva Bittovб With Bang On A Can All-Stars - 2005 - Elida\05 - Hopбhop Tбlitб.wav
Pre-gap length 0:00:03.24
Peak level 100.0 %
Track quality 100.0 %
Test CRC 34CBA684
Copy CRC 34CBA684
Accurately ripped (confidence 2) [B953E80D]
Copy OK
Track 6
Filename C:\Users\Josh\What.cd\Elida\FLAC\Iva Bittovб With Bang On A Can All-Stars - 2005 - Elida\06 - Zapнskej.wav
Peak level 98.9 %
Track quality 100.0 %
Test CRC 22B5CCC2
Copy CRC 22B5CCC2
Accurately ripped (confidence 2) [A011DE44]
Copy OK
Track 7
Filename C:\Users\Josh\What.cd\Elida\FLAC\Iva Bittovб With Bang On A Can All-Stars - 2005 - Elida\07 - Elida.wav
Pre-gap length 0:00:03.13
Peak level 98.9 %
Track quality 100.0 %
Test CRC 2F7A70DC
Copy CRC 2F7A70DC
Accurately ripped (confidence 2) [E1D49881]
Copy OK
Track 8
Filename C:\Users\Josh\What.cd\Elida\FLAC\Iva Bittovб With Bang On A Can All-Stars - 2005 - Elida\08 - Presto.wav
Pre-gap length 0:00:03.20
Peak level 98.9 %
Track quality 99.9 %
Test CRC EC86FA87
Copy CRC EC86FA87
Accurately ripped (confidence 2) [3F149390]
Copy OK
Track 9
Filename C:\Users\Josh\What.cd\Elida\FLAC\Iva Bittovб With Bang On A Can All-Stars - 2005 - Elida\09 - Nejsi.wav
Pre-gap length 0:00:03.64
Peak level 38.4 %
Track quality 99.9 %
Test CRC B9CAB35A
Copy CRC B9CAB35A
Accurately ripped (confidence 2) [0E3CC74C]
Copy OK
All tracks accurately ripped
No errors occurred
End of status report
 
Audiocheker's log
Started at: суббота, 06. 02. 2010. - 18:17.19
9 files found
1 -===- G:\Temp\Iva Bittova With Bang On A Can All-Stars - Elida (2005)\01 - Maliri V Parizi.flac
Extracted successfully
Conclusion: this track is CDDA with probability 99%
Tempfile successfully deleted.
2 -===- G:\Temp\Iva Bittova With Bang On A Can All-Stars - Elida (2005)\02 - Bolis Me, Lasko.flac
Extracted successfully
Conclusion: this track is CDDA with probability 100%
Tempfile successfully deleted.
3 -===- G:\Temp\Iva Bittova With Bang On A Can All-Stars - Elida (2005)\03 - Ladna Celadna.flac
Extracted successfully
Conclusion: this track is CDDA with probability 100%
Tempfile successfully deleted.
4 -===- G:\Temp\Iva Bittova With Bang On A Can All-Stars - Elida (2005)\04 - Samota.flac
Extracted successfully
Conclusion: this track is CDDA with probability 99%
Tempfile successfully deleted.
5 -===- G:\Temp\Iva Bittova With Bang On A Can All-Stars - Elida (2005)\05 - Hopahop Talita.flac
Extracted successfully
Conclusion: this track is CDDA with probability 100%
Tempfile successfully deleted.
6 -===- G:\Temp\Iva Bittova With Bang On A Can All-Stars - Elida (2005)\06 - Zapiskej.flac
Extracted successfully
Conclusion: this track is CDDA with probability 100%
Tempfile successfully deleted.
7 -===- G:\Temp\Iva Bittova With Bang On A Can All-Stars - Elida (2005)\07 - Elida.flac
Extracted successfully
Conclusion: this track is CDDA with probability 100%
Tempfile successfully deleted.
8 -===- G:\Temp\Iva Bittova With Bang On A Can All-Stars - Elida (2005)\08 - Presto.flac
Extracted successfully
Conclusion: this track is CDDA with probability 100%
Tempfile successfully deleted.
9 -===- G:\Temp\Iva Bittova With Bang On A Can All-Stars - Elida (2005)\09 - Nejsi.flac
Extracted successfully
Conclusion: this track is CDDA with probability 99%
Tempfile successfully deleted.
Finished at: суббота, 06. 02. 2010. - 18:29.16 (operation time: 0:11.56)
 
.cue
REM GENRE Classical
REM DATE 2005
REM DISCID 7A0AEE09
REM COMMENT "ExactAudioCopy v0.99pb5"
PERFORMER "Iva Bittovß With Bang On A Can All-Stars"
TITLE "Elida"
FILE "Iva Bittovß With Bang On A Can All-Stars - 2005 - Elida\01 - Malφri V Parφ₧i.wav" WAVE
TRACK 01 AUDIO
TITLE "Malφri V Parφ₧i"
PERFORMER "Iva Bittovß With Bang On A Can All-Stars"
INDEX 01 00:00:00
TRACK 02 AUDIO
TITLE "BolφÜ Me, Lßsko"
PERFORMER "Iva Bittovß With Bang On A Can All-Stars"
INDEX 00 02:42:70
FILE "Iva Bittovß With Bang On A Can All-Stars - 2005 - Elida\02 - BolφÜ Me, Lßsko.wav" WAVE
INDEX 01 00:00:00
FILE "Iva Bittovß With Bang On A Can All-Stars - 2005 - Elida\03 - Ladnß Celadnß.wav" WAVE
TRACK 03 AUDIO
TITLE "Ladnß Celadnß"
PERFORMER "Iva Bittovß With Bang On A Can All-Stars"
INDEX 01 00:00:00
TRACK 04 AUDIO
TITLE "Samota"
PERFORMER "Iva Bittovß With Bang On A Can All-Stars"
INDEX 00 04:17:72
FILE "Iva Bittovß With Bang On A Can All-Stars - 2005 - Elida\04 - Samota.wav" WAVE
INDEX 01 00:00:00
TRACK 05 AUDIO
TITLE "Hopßhop Tßlitß"
PERFORMER "Iva Bittovß With Bang On A Can All-Stars"
INDEX 00 04:05:70
FILE "Iva Bittovß With Bang On A Can All-Stars - 2005 - Elida\05 - Hopßhop Tßlitß.wav" WAVE
INDEX 01 00:00:00
FILE "Iva Bittovß With Bang On A Can All-Stars - 2005 - Elida\06 - Zapφskej.wav" WAVE
TRACK 06 AUDIO
TITLE "Zapφskej"
PERFORMER "Iva Bittovß With Bang On A Can All-Stars"
INDEX 01 00:00:00
TRACK 07 AUDIO
TITLE "Elida"
PERFORMER "Iva Bittovß With Bang On A Can All-Stars"
INDEX 00 09:25:15
FILE "Iva Bittovß With Bang On A Can All-Stars - 2005 - Elida\07 - Elida.wav" WAVE
INDEX 01 00:00:00
TRACK 08 AUDIO
TITLE "Presto"
PERFORMER "Iva Bittovß With Bang On A Can All-Stars"
INDEX 00 05:06:25
FILE "Iva Bittovß With Bang On A Can All-Stars - 2005 - Elida\08 - Presto.wav" WAVE
INDEX 01 00:00:00
TRACK 09 AUDIO
TITLE "Nejsi"
PERFORMER "Iva Bittovß With Bang On A Can All-Stars"
INDEX 00 02:31:57
FILE "Iva Bittovß With Bang On A Can All-Stars - 2005 - Elida\09 - Nejsi.wav" WAVE
INDEX 01 00:00:00
Доп. информация:
Источник - другой трекер. Сканов нет. Релизер - fluffhead815.
По всем вопросам пишите личное сообщение пользователю M0p94ok.
11:15
203
Нет комментариев. Ваш будет первым!