Поиск

(Contemporary Jazz, Fusion, Latin Jazz) Gilles Coquard - Reisa (feat. Marcel Loeffler, Bireli Lagrene, Mino Cinelu) - 2001, FLAC (image+.cue), lossless

(Contemporary Jazz, Fusion, Latin Jazz) Gilles Coquard - Reisa (feat. Marcel Loeffler, Bireli Lagrene, Mino Cinelu) - 2001, FLAC (image+.cue), lossless
Треклист:
Gilles Coquard - Reisa (feat. Marcel Loeffler, Bireli Lagrene, Mino Cinelu)
Жанр: Contemporary Jazz, Fusion, Latin Jazz
Год выпуска диска: 2001
Производитель диска: Россия
Аудио кодек: FLAC
Тип рипа: image+.cue
Битрейт аудио: lossless
Продолжительность: 60:40
Трэклист:
1. Ananda (Gilles Coquard) 4:44
2. Reïsa (Gilles Coquard) 5:09
3. L'Oeuf Coq (Gilles Coquard, Marcel Loeffler) 4:59
4. Nino (Gilles Coquard) 4:07
5. Daphnée (Django Reinhardt) 3:42
6. La Javanaise (Serge Gainsbourg) 3:24
7. Le Potager (Gilles Coquard) 5:11
8. Tangomania (Marcel Loeffler) 6:23
9. Bluesette (Toots Thielemann) 5:04
10. Quand Il A Plu (Jean Pierre Demas) 5:24
11. Les Ailes Du Délire (Gilles Coquard) 4:58
12. What A Wonderful World (Louis Armstrong) 7:29
Доп. информация:
Музыканты:
Gilles Coquard - 6 String Bass, Boomerang (2, 5, 7, 11)
Marcel Loeffler - Accordion
Mino Cinelu - Percussion, Vocals (1, 2, 7, 11)
Bireli Lagrene - Guitar (2, 5, 9)
Pascal Coquard - Drums (11)
 
EAC Report
Exact Audio Copy V0.99 prebeta 4 from 23. January 2008
Отчёт EAC об извлечении, выполненном 6. февраля 2010, 17:47
Gilles Coquard / Reisa
Дисковод: ASUS DRW-1814BLT Adapter: 2 ID: 0
Режим чтения : Достоверность
Использование точного потока : Да
Отключение кэша аудио : Да
Использование указателей C2 : Нет
Коррекция смещения при чтении : 6
Способность читать области Lead-in и Lead-out : Нет
Заполнение пропущенных сэмплов тишиной : Да
Удаление блоков с тишиной в начале и конце : Нет
При вычислениях CRC использовались нулевые сэмплы : Да
Интерфейс : Встроенный Win32-интерфейс для Win NT/2000
Выходной формат : Пользовательский кодировщик
Выбранный битрейт : 320 kBit/s
Качество : Высокий
Добавление ID3-тэга : Нет
Утилита сжатия : D:\Program Files\Exact Audio Copy\Flac\flac.exe
Дополнительные параметры : -8 --delete-input-file -o "D:\CDImage.flac" -V %s
TOC извлечённого CD
Трек | Старт | Длительность | Начальный сектор | Конечный сектор
---------------------------------------------------------------------
1 | 0:00.00 | 4:44.10 | 0 | 21309
2 | 4:44.10 | 5:09.71 | 21310 | 44555
3 | 9:54.06 | 4:59.48 | 44556 | 67028
4 | 14:53.54 | 4:07.29 | 67029 | 85582
5 | 19:01.08 | 3:42.51 | 85583 | 102283
6 | 22:43.59 | 3:24.64 | 102284 | 117647
7 | 26:08.48 | 5:11.04 | 117648 | 140976
8 | 31:19.52 | 6:23.49 | 140977 | 169750
9 | 37:43.26 | 5:04.22 | 169751 | 192572
10 | 42:47.48 | 5:24.28 | 192573 | 216900
11 | 48:12.01 | 4:58.60 | 216901 | 239310
12 | 53:10.61 | 7:29.64 | 239311 | 273049
Характеристики диапазона извлечения и сообщения об ошибках
Выбранный диапазон
Имя файла D:\Gilles Coquard - Reisa.wav
Пиковый уровень 100.0 %
Качество диапазона 100.0 %
CRC теста C55C5DCF
CRC копии C55C5DCF
Копирование... OK
Ошибок не произошло
AccurateRip: сводка
Трек 1 точное извлечение (доверие 2) [BBE0651C]
Трек 2 точное извлечение (доверие 2) [06A80511]
Трек 3 точное извлечение (доверие 2) [29B5AF81]
Трек 4 точное извлечение (доверие 2) [322ED80B]
Трек 5 точное извлечение (доверие 2) [3279F651]
Трек 6 точное извлечение (доверие 2) [824403FF]
Трек 7 точное извлечение (доверие 2) [3730F525]
Трек 8 точное извлечение (доверие 2) [842A1688]
Трек 9 точное извлечение (доверие 2) [6C995276]
Трек 10 точное извлечение (доверие 2) [E8985B81]
Трек 11 точное извлечение (доверие 2) [AB5D15BB]
Трек 12 точное извлечение (доверие 2) [82DABBD4]
Все треки извлечены точно
Конец отчёта
По всем вопросам пишите личное сообщение пользователю M0p94ok.
11:16
222
Нет комментариев. Ваш будет первым!