Поиск

(Avant-Garde, Vocal Jazz, Folk-Jazz) Iva Bittová (Iva Bittova) - Ne Nehledej - 1994, FLAC (tracks+.cue), lossless

Треклист:
Iva Bittová (Iva Bittova) - Ne Nehledej
Жанр: Avant-Garde, Vocal Jazz, Folk-Jazz
Год выпуска диска: 1994
Аудио кодек: FLAC
Тип рипа: tracks+.cue
Битрейт аудио: lossless
Продолжительность: 0:45:22
Трэклист:
01. Ne nehledej (14:01)
02. Studenec (2:28)
03. Blázen (7:55)
04. Dos Kelbl (9:59)
05. Paraskeva (6:59)
06. Kapitulní sín (4:01)
 
XLD log
X Lossless Decoder version 20091111 (113.0)
XLD extraction logfile from 2009-11-11 13:11:53 +0100
Iva BittovГЎ / Ne nehledej
Used drive : MATSHITA DVD-R UJ-85J (revision FCQA)
Use cdparanoia mode : YES (CDParanoia III 10.2 engine)
Disable audio cache : OK for the drive with cache less than 2750KB
Make use of C2 pointers : NO
Read offset correction : 102
Max retry count : 100
TOC of the extracted CD
Track | Start | Length | Start sector | End sector
---------------------------------------------------------
1 | 00:00:32 | 14:00:65 | 32 | 63096
2 | 14:01:22 | 02:27:65 | 63097 | 74186
3 | 16:29:12 | 07:54:55 | 74187 | 109791
4 | 24:23:67 | 09:58:70 | 109792 | 154711
5 | 34:22:62 | 06:58:73 | 154712 | 186134
6 | 41:21:60 | 04:01:07 | 186135 | 204216
Track 01
Filename : /Users/vinca_im/Desktop/XLD Rips/01 - Ne nehledej.flac
/Users/vinca_im/Desktop/XLD Rips/01 - Ne nehledej.mp3
CRC32 hash (test run) : 44605818
CRC32 hash : 44605818
CRC32 hash (skip zero) : 02DF2758
AccurateRip signature : 7AEAFB8F
->Accurately ripped! (confidence 2)
Statistics
Read error : 0
Skipped (treated as error) : 0
Edge jitter error (maybe fixed) : 0
Atom jitter error (maybe fixed) : 0
Drift error (maybe fixed) : 0
Dropped bytes error (maybe fixed) : 0
Duplicated bytes error (maybe fixed) : 0
Track 02
Filename : /Users/vinca_im/Desktop/XLD Rips/02 - Studenec.flac
/Users/vinca_im/Desktop/XLD Rips/02 - Studenec.mp3
CRC32 hash (test run) : D2FEDAC7
CRC32 hash : D2FEDAC7
CRC32 hash (skip zero) : D5195CB1
AccurateRip signature : AF825F43
->Accurately ripped! (confidence 2)
Statistics
Read error : 0
Skipped (treated as error) : 0
Edge jitter error (maybe fixed) : 0
Atom jitter error (maybe fixed) : 0
Drift error (maybe fixed) : 0
Dropped bytes error (maybe fixed) : 0
Duplicated bytes error (maybe fixed) : 0
Track 03
Filename : /Users/vinca_im/Desktop/XLD Rips/03 - BlГЎzen.flac
/Users/vinca_im/Desktop/XLD Rips/03 - BlГЎzen.mp3
CRC32 hash (test run) : 1C75BA74
CRC32 hash : 1C75BA74
CRC32 hash (skip zero) : 2D397490
AccurateRip signature : 6C8DE995
->Accurately ripped! (confidence 2)
Statistics
Read error : 0
Skipped (treated as error) : 0
Edge jitter error (maybe fixed) : 0
Atom jitter error (maybe fixed) : 0
Drift error (maybe fixed) : 0
Dropped bytes error (maybe fixed) : 0
Duplicated bytes error (maybe fixed) : 0
Track 04
Filename : /Users/vinca_im/Desktop/XLD Rips/04 - Dos Kelbl.flac
/Users/vinca_im/Desktop/XLD Rips/04 - Dos Kelbl.mp3
CRC32 hash (test run) : 0081269B
CRC32 hash : 0081269B
CRC32 hash (skip zero) : 7C617EF5
AccurateRip signature : B0659003
->Accurately ripped! (confidence 2)
Statistics
Read error : 0
Skipped (treated as error) : 0
Edge jitter error (maybe fixed) : 0
Atom jitter error (maybe fixed) : 0
Drift error (maybe fixed) : 0
Dropped bytes error (maybe fixed) : 0
Duplicated bytes error (maybe fixed) : 0
Track 05
Filename : /Users/vinca_im/Desktop/XLD Rips/05 - Paraskeva.flac
/Users/vinca_im/Desktop/XLD Rips/05 - Paraskeva.mp3
CRC32 hash (test run) : AC728BCE
CRC32 hash : AC728BCE
CRC32 hash (skip zero) : 41158AC9
AccurateRip signature : F3A602DD
->Accurately ripped! (confidence 2)
Statistics
Read error : 0
Skipped (treated as error) : 0
Edge jitter error (maybe fixed) : 0
Atom jitter error (maybe fixed) : 0
Drift error (maybe fixed) : 0
Dropped bytes error (maybe fixed) : 0
Duplicated bytes error (maybe fixed) : 0
Track 06
Filename : /Users/vinca_im/Desktop/XLD Rips/06 - KapitulnГ­ sГ­n.flac
/Users/vinca_im/Desktop/XLD Rips/06 - KapitulnГ­ sГ­n.mp3
CRC32 hash (test run) : 36984682
CRC32 hash : 36984682
CRC32 hash (skip zero) : E448C554
AccurateRip signature : 50CFD8EE
->Accurately ripped! (confidence 2)
Statistics
Read error : 0
Skipped (treated as error) : 0
Edge jitter error (maybe fixed) : 0
Atom jitter error (maybe fixed) : 0
Drift error (maybe fixed) : 0
Dropped bytes error (maybe fixed) : 0
Duplicated bytes error (maybe fixed) : 0
No errors occurred
End of status report
 
Audiocheker's log
Started at: суббота, 06. 02. 2010. - 18:50.55
6 files found
1 -===- G:\Temp\Iva Bittova - Ne Nehledej (1994) [FLAC]\01 - Ne nehledej.flac
Extracted successfully
Conclusion: this track is CDDA with probability 100%
Tempfile successfully deleted.
2 -===- G:\Temp\Iva Bittova - Ne Nehledej (1994) [FLAC]\02 - Studenec.flac
Extracted successfully
Conclusion: this track is CDDA with probability 100%
Tempfile successfully deleted.
3 -===- G:\Temp\Iva Bittova - Ne Nehledej (1994) [FLAC]\03 - Blazen.flac
Extracted successfully
Conclusion: this track is CDDA with probability 100%
Tempfile successfully deleted.
4 -===- G:\Temp\Iva Bittova - Ne Nehledej (1994) [FLAC]\04 - Dos Kelbl.flac
Extracted successfully
Conclusion: this track is CDDA with probability 99%
Tempfile successfully deleted.
5 -===- G:\Temp\Iva Bittova - Ne Nehledej (1994) [FLAC]\05 - Paraskeva.flac
Extracted successfully
Conclusion: this track is CDDA with probability 100%
Tempfile successfully deleted.
6 -===- G:\Temp\Iva Bittova - Ne Nehledej (1994) [FLAC]\06 - Kapitulni sin.flac
Extracted successfully
Conclusion: this track is CDDA with probability 100%
Tempfile successfully deleted.
Finished at: суббота, 06. 02. 2010. - 19:02.10 (operation time: 0:11.15)
 
.cue
TITLE "Ne nehledej"
PERFORMER "Iva BittovГЎ"
REM GENRE "Folk"
REM DATE "1994"
FILE "01 - Ne nehledej.wav" WAVE
TRACK 01 AUDIO
TITLE "Ne nehledej"
INDEX 00 00:00:00
INDEX 01 00:00:32
TRACK 02 AUDIO
TITLE "Studenec"
INDEX 00 13:57:45
FILE "02 - Studenec.wav" WAVE
INDEX 01 00:00:00
TRACK 03 AUDIO
TITLE "BlГЎzen"
INDEX 00 02:24:68
FILE "03 - BlГЎzen.wav" WAVE
INDEX 01 00:00:00
TRACK 04 AUDIO
TITLE "Dos Kelbl"
INDEX 00 07:52:73
FILE "04 - Dos Kelbl.wav" WAVE
INDEX 01 00:00:00
TRACK 05 AUDIO
TITLE "Paraskeva"
INDEX 00 09:56:33
FILE "05 - Paraskeva.wav" WAVE
INDEX 01 00:00:00
TRACK 06 AUDIO
TITLE "KapitulnГ­ sГ­n"
INDEX 00 06:56:38
FILE "06 - KapitulnГ­ sГ­n.wav" WAVE
INDEX 01 00:00:00
Доп. информация:
Источник - другой трекер. Сканов нет. Релизер - vinca.
Download available for power users only.
11:15
230
Нет комментариев. Ваш будет первым!