Поиск

(Avant-Garde, Vocal Jazz, Folk-Jazz) Iva Bittová - Divná Slečinka (Iva Bittova - Divna slecinka) - 1991, FLAC (tracks+.cue), lossless

Треклист:
Iva Bittová - Divná Slečinka (Iva Bittova - Divna slecinka)
Жанр: Avant-Garde, Vocal Jazz, Folk-Jazz
Год выпуска диска: 1991
Аудио кодек: FLAC
Тип рипа: tracks+.cue
Битрейт аудио: lossless
Продолжительность: 0:50:09
Трэклист:
01. Hrál kdosi na hoboj (3:38)
02. Divná slečinka (5:07)
03. Plivám z plev pýru (1:24)
04. Banjo (2:59)
05. Dřív než (5:51)
06. Dědeček (3:01)
07. Adventní (1:48)
08. Viola (4:08)
09. Čína (3:00)
10. Ples upírů (7:41)
11. Vím Nevím (1:29)
12. Proudem mléka (4:48)
13. V zemi neorané (3:11)
14. Jedna sestra bratra měla (2:03)
 
XLD log
X Lossless Decoder version 20091111 (113.0)
XLD extraction logfile from 2009-11-11 22:48:46 +0100
Iva BittovГЎ / DivnГЎ sleДЌinka
Used drive : MATSHITA DVD-R UJ-85J (revision FCQA)
Use cdparanoia mode : YES (CDParanoia III 10.2 engine)
Disable audio cache : OK for the drive with cache less than 2750KB
Make use of C2 pointers : NO
Read offset correction : 102
Max retry count : 100
TOC of the extracted CD
Track | Start | Length | Start sector | End sector
---------------------------------------------------------
1 | 00:00:32 | 03:37:60 | 32 | 16366
2 | 03:38:17 | 05:06:40 | 16367 | 39356
3 | 08:44:57 | 01:23:60 | 39357 | 45641
4 | 10:08:42 | 02:58:63 | 45642 | 59054
5 | 13:07:30 | 05:51:07 | 59055 | 85386
6 | 18:58:37 | 03:01:35 | 85387 | 98996
7 | 21:59:72 | 01:48:23 | 98997 | 107119
8 | 23:48:20 | 04:08:37 | 107120 | 125756
9 | 27:56:57 | 03:00:13 | 125757 | 139269
10 | 30:56:70 | 07:41:30 | 139270 | 173874
11 | 38:38:25 | 01:29:00 | 173875 | 180549
12 | 40:07:25 | 04:48:32 | 180550 | 202181
13 | 44:55:57 | 03:10:45 | 202182 | 216476
14 | 48:06:27 | 02:03:00 | 216477 | 225701
List of alternate offset correction values
# | Absolute | Relative | Confidence
------------------------------------------
1 | 963 | 861 | 2
Track 01
Filename : /Users/vinca_im/Desktop/XLD Rips/01 - HrГЎl kdosi na hoboj.flac
/Users/vinca_im/Desktop/XLD Rips/01 - HrГЎl kdosi na hoboj.mp3
CRC32 hash (test run) : CF4E9700
CRC32 hash : CF4E9700
CRC32 hash (skip zero) : C7355664
AccurateRip signature : 7AB7CD26
->Accurately ripped! (confidence 2)
(matched with the different offset correction value;
calculated using an additional offset of 861;
the signature after correction is: CBF63C8C)
Statistics
Read error : 0
Skipped (treated as error) : 0
Edge jitter error (maybe fixed) : 0
Atom jitter error (maybe fixed) : 0
Drift error (maybe fixed) : 0
Dropped bytes error (maybe fixed) : 0
Duplicated bytes error (maybe fixed) : 0
Track 02
Filename : /Users/vinca_im/Desktop/XLD Rips/02 - DivnГЎ sleДЌinka.flac
/Users/vinca_im/Desktop/XLD Rips/02 - DivnГЎ sleДЌinka.mp3
CRC32 hash (test run) : EB999D74
CRC32 hash : EB999D74
CRC32 hash (skip zero) : 554A7219
AccurateRip signature : C61DF10E
->Accurately ripped! (confidence 2)
(matched with the different offset correction value;
calculated using an additional offset of 861;
the signature after correction is: 55F39A70)
Statistics
Read error : 0
Skipped (treated as error) : 0
Edge jitter error (maybe fixed) : 0
Atom jitter error (maybe fixed) : 0
Drift error (maybe fixed) : 0
Dropped bytes error (maybe fixed) : 0
Duplicated bytes error (maybe fixed) : 0
Track 03
Filename : /Users/vinca_im/Desktop/XLD Rips/03 - PlivГЎm z plev pГЅru.flac
/Users/vinca_im/Desktop/XLD Rips/03 - PlivГЎm z plev pГЅru.mp3
CRC32 hash (test run) : B0D04950
CRC32 hash : B0D04950
CRC32 hash (skip zero) : E9188A6B
AccurateRip signature : 0486EC81
->Accurately ripped! (confidence 2)
(matched with the different offset correction value;
calculated using an additional offset of 861;
the signature after correction is: 572025D9)
Statistics
Read error : 0
Skipped (treated as error) : 0
Edge jitter error (maybe fixed) : 0
Atom jitter error (maybe fixed) : 0
Drift error (maybe fixed) : 0
Dropped bytes error (maybe fixed) : 0
Duplicated bytes error (maybe fixed) : 0
Track 04
Filename : /Users/vinca_im/Desktop/XLD Rips/04 - Banjo.flac
/Users/vinca_im/Desktop/XLD Rips/04 - Banjo.mp3
CRC32 hash (test run) : 89DAC6EE
CRC32 hash : 89DAC6EE
CRC32 hash (skip zero) : 5F9374EC
AccurateRip signature : CC50DFCC
->Accurately ripped! (confidence 2)
(matched with the different offset correction value;
calculated using an additional offset of 861;
the signature after correction is: B78848A8)
Statistics
Read error : 0
Skipped (treated as error) : 0
Edge jitter error (maybe fixed) : 0
Atom jitter error (maybe fixed) : 0
Drift error (maybe fixed) : 0
Dropped bytes error (maybe fixed) : 0
Duplicated bytes error (maybe fixed) : 0
Track 05
Filename : /Users/vinca_im/Desktop/XLD Rips/05 - DЕ™Г­v neЕѕ.flac
/Users/vinca_im/Desktop/XLD Rips/05 - DЕ™Г­v neЕѕ.mp3
CRC32 hash (test run) : FAB27671
CRC32 hash : FAB27671
CRC32 hash (skip zero) : 2704266A
AccurateRip signature : 28AF1A2A
->Accurately ripped! (confidence 2)
(matched with the different offset correction value;
calculated using an additional offset of 861;
the signature after correction is: 6902D5AF)
Statistics
Read error : 0
Skipped (treated as error) : 0
Edge jitter error (maybe fixed) : 0
Atom jitter error (maybe fixed) : 0
Drift error (maybe fixed) : 0
Dropped bytes error (maybe fixed) : 0
Duplicated bytes error (maybe fixed) : 0
Track 06
Filename : /Users/vinca_im/Desktop/XLD Rips/06 - DД›deДЌek.flac
/Users/vinca_im/Desktop/XLD Rips/06 - DД›deДЌek.mp3
CRC32 hash (test run) : 5317EC7B
CRC32 hash : 5317EC7B
CRC32 hash (skip zero) : 59439594
AccurateRip signature : BC6E89A5
->Accurately ripped! (confidence 2)
(matched with the different offset correction value;
calculated using an additional offset of 861;
the signature after correction is: BADE1D3E)
Statistics
Read error : 0
Skipped (treated as error) : 0
Edge jitter error (maybe fixed) : 0
Atom jitter error (maybe fixed) : 0
Drift error (maybe fixed) : 0
Dropped bytes error (maybe fixed) : 0
Duplicated bytes error (maybe fixed) : 0
Track 07
Filename : /Users/vinca_im/Desktop/XLD Rips/07 - AdventnГ­.flac
/Users/vinca_im/Desktop/XLD Rips/07 - AdventnГ­.mp3
CRC32 hash (test run) : 33AEBB53
CRC32 hash : 33AEBB53
CRC32 hash (skip zero) : 7781E370
AccurateRip signature : 7924C1C8
->Accurately ripped! (confidence 2)
(matched with the different offset correction value;
calculated using an additional offset of 861;
the signature after correction is: 9CD38151)
Statistics
Read error : 0
Skipped (treated as error) : 0
Edge jitter error (maybe fixed) : 0
Atom jitter error (maybe fixed) : 0
Drift error (maybe fixed) : 0
Dropped bytes error (maybe fixed) : 0
Duplicated bytes error (maybe fixed) : 0
Track 08
Filename : /Users/vinca_im/Desktop/XLD Rips/08 - Viola.flac
/Users/vinca_im/Desktop/XLD Rips/08 - Viola.mp3
CRC32 hash (test run) : 15F5B9A0
CRC32 hash : 15F5B9A0
CRC32 hash (skip zero) : 587CB01A
AccurateRip signature : 6E5308BF
->Accurately ripped! (confidence 2)
(matched with the different offset correction value;
calculated using an additional offset of 861;
the signature after correction is: A1267F89)
Statistics
Read error : 0
Skipped (treated as error) : 0
Edge jitter error (maybe fixed) : 0
Atom jitter error (maybe fixed) : 0
Drift error (maybe fixed) : 0
Dropped bytes error (maybe fixed) : 0
Duplicated bytes error (maybe fixed) : 0
Track 09
Filename : /Users/vinca_im/Desktop/XLD Rips/09 - ДЊГ­na.flac
/Users/vinca_im/Desktop/XLD Rips/09 - ДЊГ­na.mp3
CRC32 hash (test run) : D7409D7A
CRC32 hash : D7409D7A
CRC32 hash (skip zero) : 00B8F59A
AccurateRip signature : 5912CAA2
->Accurately ripped! (confidence 2)
(matched with the different offset correction value;
calculated using an additional offset of 861;
the signature after correction is: 6C8C3050)
Statistics
Read error : 0
Skipped (treated as error) : 0
Edge jitter error (maybe fixed) : 0
Atom jitter error (maybe fixed) : 0
Drift error (maybe fixed) : 0
Dropped bytes error (maybe fixed) : 0
Duplicated bytes error (maybe fixed) : 0
Track 10
Filename : /Users/vinca_im/Desktop/XLD Rips/10 - Ples upГ­rЕЇ.flac
/Users/vinca_im/Desktop/XLD Rips/10 - Ples upГ­rЕЇ.mp3
CRC32 hash (test run) : 60DAD26E
CRC32 hash : 60DAD26E
CRC32 hash (skip zero) : 52457013
AccurateRip signature : F815E891
->Accurately ripped! (confidence 2)
(matched with the different offset correction value;
calculated using an additional offset of 861;
the signature after correction is: 4E7ECD55)
Statistics
Read error : 0
Skipped (treated as error) : 0
Edge jitter error (maybe fixed) : 0
Atom jitter error (maybe fixed) : 0
Drift error (maybe fixed) : 0
Dropped bytes error (maybe fixed) : 0
Duplicated bytes error (maybe fixed) : 0
Track 11
Filename : /Users/vinca_im/Desktop/XLD Rips/11 - VГ­m NevГ­m.flac
/Users/vinca_im/Desktop/XLD Rips/11 - VГ­m NevГ­m.mp3
CRC32 hash (test run) : E9D4E9C3
CRC32 hash : E9D4E9C3
CRC32 hash (skip zero) : 4FDE03E2
AccurateRip signature : 84C26121
->Accurately ripped! (confidence 2)
(matched with the different offset correction value;
calculated using an additional offset of 861;
the signature after correction is: A0079501)
Statistics
Read error : 0
Skipped (treated as error) : 0
Edge jitter error (maybe fixed) : 0
Atom jitter error (maybe fixed) : 0
Drift error (maybe fixed) : 0
Dropped bytes error (maybe fixed) : 0
Duplicated bytes error (maybe fixed) : 0
Track 12
Filename : /Users/vinca_im/Desktop/XLD Rips/12 - Proudem mlГ©ka.flac
/Users/vinca_im/Desktop/XLD Rips/12 - Proudem mlГ©ka.mp3
CRC32 hash (test run) : B8B9DFB9
CRC32 hash : B8B9DFB9
CRC32 hash (skip zero) : 4F361235
AccurateRip signature : A52C42B4
->Accurately ripped! (confidence 2)
(matched with the different offset correction value;
calculated using an additional offset of 861;
the signature after correction is: 900F0D1D)
Statistics
Read error : 0
Skipped (treated as error) : 0
Edge jitter error (maybe fixed) : 0
Atom jitter error (maybe fixed) : 0
Drift error (maybe fixed) : 0
Dropped bytes error (maybe fixed) : 0
Duplicated bytes error (maybe fixed) : 0
Track 13
Filename : /Users/vinca_im/Desktop/XLD Rips/13 - V zemi neoranГ©.flac
/Users/vinca_im/Desktop/XLD Rips/13 - V zemi neoranГ©.mp3
CRC32 hash (test run) : 7CF9FFC7
CRC32 hash : 7CF9FFC7
CRC32 hash (skip zero) : F1E199EE
AccurateRip signature : BBCD9E61
->Accurately ripped! (confidence 2)
(matched with the different offset correction value;
calculated using an additional offset of 861;
the signature after correction is: F82E753B)
Statistics
Read error : 0
Skipped (treated as error) : 0
Edge jitter error (maybe fixed) : 0
Atom jitter error (maybe fixed) : 0
Drift error (maybe fixed) : 0
Dropped bytes error (maybe fixed) : 0
Duplicated bytes error (maybe fixed) : 0
Track 14
Filename : /Users/vinca_im/Desktop/XLD Rips/14 - Jedna sestra bratra mД›la.flac
/Users/vinca_im/Desktop/XLD Rips/14 - Jedna sestra bratra mД›la.mp3
CRC32 hash (test run) : 319375A1
CRC32 hash : 319375A1
CRC32 hash (skip zero) : 451A54C5
AccurateRip signature : B5916E96
->Accurately ripped! (confidence 2)
(matched with the different offset correction value;
calculated using an additional offset of 861;
the signature after correction is: 68EB5927)
Statistics
Read error : 0
Skipped (treated as error) : 0
Edge jitter error (maybe fixed) : 0
Atom jitter error (maybe fixed) : 0
Drift error (maybe fixed) : 0
Dropped bytes error (maybe fixed) : 0
Duplicated bytes error (maybe fixed) : 0
No errors occurred
End of status report
 
Audiocheker's log
Started at: суббота, 06. 02. 2010. - 18:33.41
14 files found
01 -===- G:\Temp\Iva Bittova - Divna slecinka (1991) [FLAC]\01 - Hral kdosi na hoboj.flac
Extracted successfully
Conclusion: this track is CDDA with probability 100%
Tempfile successfully deleted.
02 -===- G:\Temp\Iva Bittova - Divna slecinka (1991) [FLAC]\02 - Divna slecinka.flac
Extracted successfully
Conclusion: this track is CDDA with probability 100%
Tempfile successfully deleted.
03 -===- G:\Temp\Iva Bittova - Divna slecinka (1991) [FLAC]\03 - Plivam z plev pyru.flac
Extracted successfully
Conclusion: this track is CDDA with probability 100%
Tempfile successfully deleted.
04 -===- G:\Temp\Iva Bittova - Divna slecinka (1991) [FLAC]\04 - Banjo.flac
Extracted successfully
Conclusion: this track is CDDA with probability 100%
Tempfile successfully deleted.
05 -===- G:\Temp\Iva Bittova - Divna slecinka (1991) [FLAC]\05 - Driv nez.flac
Extracted successfully
Conclusion: this track is CDDA with probability 100%
Tempfile successfully deleted.
06 -===- G:\Temp\Iva Bittova - Divna slecinka (1991) [FLAC]\06 - Dedecek.flac
Extracted successfully
Conclusion: this track is CDDA with probability 100%
Tempfile successfully deleted.
07 -===- G:\Temp\Iva Bittova - Divna slecinka (1991) [FLAC]\07 - Adventni.flac
Extracted successfully
Conclusion: this track is CDDA with probability 100%
Tempfile successfully deleted.
08 -===- G:\Temp\Iva Bittova - Divna slecinka (1991) [FLAC]\08 - Viola.flac
Extracted successfully
Conclusion: this track is CDDA with probability 100%
Tempfile successfully deleted.
09 -===- G:\Temp\Iva Bittova - Divna slecinka (1991) [FLAC]\09 - Cina.flac
Extracted successfully
Conclusion: this track is CDDA with probability 99%
Tempfile successfully deleted.
10 -===- G:\Temp\Iva Bittova - Divna slecinka (1991) [FLAC]\10 - Ples upiru.flac
Extracted successfully
Conclusion: this track is CDDA with probability 100%
Tempfile successfully deleted.
11 -===- G:\Temp\Iva Bittova - Divna slecinka (1991) [FLAC]\11 - Vim Nevim.flac
Extracted successfully
Conclusion: this track is CDDA with probability 100%
Tempfile successfully deleted.
12 -===- G:\Temp\Iva Bittova - Divna slecinka (1991) [FLAC]\12 - Proudem mleka.flac
Extracted successfully
Conclusion: this track is CDDA with probability 99%
Tempfile successfully deleted.
13 -===- G:\Temp\Iva Bittova - Divna slecinka (1991) [FLAC]\13 - V zemi neorane.flac
Extracted successfully
Conclusion: this track is CDDA with probability 100%
Tempfile successfully deleted.
14 -===- G:\Temp\Iva Bittova - Divna slecinka (1991) [FLAC]\14 - Jedna sestra bratra mela.flac
Extracted successfully
Conclusion: this track is CDDA with probability 100%
Tempfile successfully deleted.
Finished at: суббота, 06. 02. 2010. - 18:46.41 (operation time: 0:13.00)
 
.cue
TITLE "Divná slečinka"
PERFORMER "Iva Bittová"
REM DATE "1996"
FILE "01 - Hrál kdosi na hoboj.wav" WAVE
TRACK 01 AUDIO
TITLE "Hrál kdosi na hoboj"
INDEX 00 00:00:00
INDEX 01 00:00:32
TRACK 02 AUDIO
TITLE "Divná slečinka"
INDEX 00 03:33:55
FILE "02 - Divná slečinka.wav" WAVE
INDEX 01 00:00:00
TRACK 03 AUDIO
TITLE "Plivám z plev pýru"
INDEX 00 05:03:15
FILE "03 - Plivám z plev pýru.wav" WAVE
INDEX 01 00:00:00
TRACK 04 AUDIO
TITLE "Banjo"
INDEX 00 01:22:14
FILE "04 - Banjo.wav" WAVE
INDEX 01 00:00:00
TRACK 05 AUDIO
TITLE "Dřív než"
INDEX 00 02:56:13
FILE "05 - Dřív než.wav" WAVE
INDEX 01 00:00:00
TRACK 06 AUDIO
TITLE "D─¢de─ìek"
INDEX 00 05:47:47
FILE "06 - D─¢de─ìek.wav" WAVE
INDEX 01 00:00:00
TRACK 07 AUDIO
TITLE "Adventní"
INDEX 00 02:59:31
FILE "07 - Adventní.wav" WAVE
INDEX 01 00:00:00
TRACK 08 AUDIO
TITLE "Viola"
INDEX 00 01:42:47
FILE "08 - Viola.wav" WAVE
INDEX 01 00:00:00
TRACK 09 AUDIO
TITLE "Čína"
INDEX 00 04:06:67
FILE "09 - Čína.wav" WAVE
INDEX 01 00:00:00
TRACK 10 AUDIO
TITLE "Ples upírů"
INDEX 00 02:56:08
FILE "10 - Ples upírů.wav" WAVE
INDEX 01 00:00:00
TRACK 11 AUDIO
TITLE "Vím Nevím"
INDEX 00 07:38:53
FILE "11 - Vím Nevím.wav" WAVE
INDEX 01 00:00:00
TRACK 12 AUDIO
TITLE "Proudem mléka"
INDEX 00 01:24:40
FILE "12 - Proudem mléka.wav" WAVE
INDEX 01 00:00:00
TRACK 13 AUDIO
TITLE "V zemi neorané"
INDEX 00 04:43:41
FILE "13 - V zemi neorané.wav" WAVE
INDEX 01 00:00:00
TRACK 14 AUDIO
TITLE "Jedna sestra bratra m─¢la"
INDEX 00 03:06:74
FILE "14 - Jedna sestra bratra m─¢la.wav" WAVE
INDEX 01 00:00:00
Доп. информация:
Источник - другой трекер. Сканов нет. Релизер - vinca.
По всем вопросам пишите личное сообщение пользователю M0p94ok.
11:14
211
Нет комментариев. Ваш будет первым!