Вы используете незарегистрированную версию компонента "Вкладки"!

Поиск

(Avant Garde) Tricolor (Jeff Parker, Tatsu Aoki, David Pavkovic) - Mirth + Feckless, Nonparticipant + Milk (дискография) - 1999 - 2001, FLAC (tracks+.cue) lossless

Треклист:
Tricolor - дискография
Жанр: Avant Garde
Страна-производитель диска: США
Год издания диска: 1999 - 2001
Издатель (лейбл): Atavistic Records
Номер по каталогу: ALP108CD, ALP131CD
Страна: США
Аудио кодек: FLAC (*.flac)
Тип рипа: tracks+.cue
Битрейт аудио: lossless
Продолжительность: 47:58
Источник (релизер): вот.сиди (wiggles)
Наличие сканов в содержимом раздачи: нет
Jeff Parker: guitar
Tatsu Aoki: bass
David Pavkovic: drums
Mirth + Feckless
Треклист:
1. Pep (4:13)
2. No Name (1:35)
3. Mirth (4:01)
4. Go Free (2:10)
5. Thrive (5:08)
6. Seven (3:30)
7. Quick Pay (1:02)
8. Endless (5:27)
9. Feckless (2:50)
10. Dark Money (2:18)
11. Cumulus (4:22)
12. Airport Jail (4:29)
13. Chicago Cool (6:13)
 
Лог создания рипа
X Lossless Decoder version 20100828 (120.6)
XLD extraction logfile from 2010-09-12 15:35:26 -0700
Tricolor / Mirth + Feckless
Used drive : OPTIARC DVD RW AD-5680H (revision 3AHB)
Use cdparanoia mode : YES (CDParanoia III 10.2 engine)
Disable audio cache : OK for the drive with cache less than 2750KB
Make use of C2 pointers : NO
Read offset correction : 48
Max retry count : 100
Gap status : Analyzed, Appended (except HTOA)
TOC of the extracted CD
Track | Start | Length | Start sector | End sector
---------------------------------------------------------
1 | 00:00:00 | 04:20:36 | 0 | 19535
2 | 04:20:36 | 01:36:56 | 19536 | 26791
3 | 05:57:17 | 04:03:43 | 26792 | 45059
4 | 10:00:60 | 02:12:27 | 45060 | 54986
5 | 12:13:12 | 05:12:25 | 54987 | 78411
6 | 17:25:37 | 03:40:33 | 78412 | 94944
7 | 21:05:70 | 01:06:16 | 94945 | 99910
8 | 22:12:11 | 05:25:62 | 99911 | 124347
9 | 27:37:73 | 02:53:72 | 124348 | 137394
10 | 30:31:70 | 02:20:27 | 137395 | 147921
11 | 32:52:22 | 04:20:47 | 147922 | 167468
12 | 37:12:69 | 04:31:72 | 167469 | 187865
13 | 41:44:66 | 06:12:51 | 187866 | 215816
All Tracks
Album gain : -7.50 dB
Peak : 0.965668
Track 01
Filename : /Users/Erebus/Flac Rips/Tricolor - Mirth and Feckless/01 - Pep.flac
Pre-gap length : 00:02:00
Track gain : -8.00 dB
Peak : 0.965668
CRC32 hash (test run) : EE22BB8D
CRC32 hash : EE22BB8D
CRC32 hash (skip zero) : 60C1361B
AccurateRip signature : D1A5411C
->Accurately ripped! (confidence 1)
Statistics
Read error : 0
Skipped (treated as error) : 0
Edge jitter error (maybe fixed) : 0
Atom jitter error (maybe fixed) : 0
Drift error (maybe fixed) : 0
Dropped bytes error (maybe fixed) : 0
Duplicated bytes error (maybe fixed) : 0
Inconsistency in error sectors : 0
Track 02
Filename : /Users/Erebus/Flac Rips/Tricolor - Mirth and Feckless/02 - No Name.flac
Pre-gap length : 00:02:00
Track gain : -6.83 dB
Peak : 0.965576
CRC32 hash (test run) : 4081B321
CRC32 hash : 4081B321
CRC32 hash (skip zero) : AE495BAA
AccurateRip signature : BDA25FCF
->Accurately ripped! (confidence 1)
Statistics
Read error : 0
Skipped (treated as error) : 0
Edge jitter error (maybe fixed) : 0
Atom jitter error (maybe fixed) : 0
Drift error (maybe fixed) : 0
Dropped bytes error (maybe fixed) : 0
Duplicated bytes error (maybe fixed) : 0
Inconsistency in error sectors : 0
Track 03
Filename : /Users/Erebus/Flac Rips/Tricolor - Mirth and Feckless/03 - Mirth.flac
Pre-gap length : 00:02:00
Track gain : -7.44 dB
Peak : 0.965637
CRC32 hash (test run) : 88717F17
CRC32 hash : 88717F17
CRC32 hash (skip zero) : 316255C3
AccurateRip signature : F9D0E8D1
->Accurately ripped! (confidence 1)
Statistics
Read error : 0
Skipped (treated as error) : 0
Edge jitter error (maybe fixed) : 0
Atom jitter error (maybe fixed) : 0
Drift error (maybe fixed) : 0
Dropped bytes error (maybe fixed) : 0
Duplicated bytes error (maybe fixed) : 0
Inconsistency in error sectors : 0
Track 04
Filename : /Users/Erebus/Flac Rips/Tricolor - Mirth and Feckless/04 - Go Free.flac
Pre-gap length : 00:02:00
Track gain : -8.79 dB
Peak : 0.965668
CRC32 hash (test run) : 9AFAEF81
CRC32 hash : 9AFAEF81
CRC32 hash (skip zero) : CED799C8
AccurateRip signature : 68DB044B
->Accurately ripped! (confidence 1)
Statistics
Read error : 0
Skipped (treated as error) : 0
Edge jitter error (maybe fixed) : 0
Atom jitter error (maybe fixed) : 0
Drift error (maybe fixed) : 0
Dropped bytes error (maybe fixed) : 0
Duplicated bytes error (maybe fixed) : 0
Inconsistency in error sectors : 0
Track 05
Filename : /Users/Erebus/Flac Rips/Tricolor - Mirth and Feckless/05 - Thrive.flac
Pre-gap length : 00:02:01
Track gain : -5.30 dB
Peak : 0.965546
CRC32 hash (test run) : D65F75F5
CRC32 hash : D65F75F5
CRC32 hash (skip zero) : E4098423
AccurateRip signature : 1376BCEE
->Accurately ripped! (confidence 1)
Statistics
Read error : 0
Skipped (treated as error) : 0
Edge jitter error (maybe fixed) : 0
Atom jitter error (maybe fixed) : 0
Drift error (maybe fixed) : 0
Dropped bytes error (maybe fixed) : 0
Duplicated bytes error (maybe fixed) : 0
Inconsistency in error sectors : 0
Track 06
Filename : /Users/Erebus/Flac Rips/Tricolor - Mirth and Feckless/06 - Seven.flac
Pre-gap length : 00:02:00
Track gain : -6.21 dB
Peak : 0.965485
CRC32 hash (test run) : 4AB81F98
CRC32 hash : 4AB81F98
CRC32 hash (skip zero) : 7F89D0EB
AccurateRip signature : 6EF1D2C5
->Accurately ripped! (confidence 1)
Statistics
Read error : 0
Skipped (treated as error) : 0
Edge jitter error (maybe fixed) : 0
Atom jitter error (maybe fixed) : 0
Drift error (maybe fixed) : 0
Dropped bytes error (maybe fixed) : 0
Duplicated bytes error (maybe fixed) : 0
Inconsistency in error sectors : 0
Track 07
Filename : /Users/Erebus/Flac Rips/Tricolor - Mirth and Feckless/07 - Quick Play.flac
Pre-gap length : 00:02:00
Track gain : -6.59 dB
Peak : 0.965515
CRC32 hash (test run) : 97416625
CRC32 hash : 97416625
CRC32 hash (skip zero) : EF193AA3
AccurateRip signature : BBC38298
->Accurately ripped! (confidence 1)
Statistics
Read error : 0
Skipped (treated as error) : 0
Edge jitter error (maybe fixed) : 0
Atom jitter error (maybe fixed) : 0
Drift error (maybe fixed) : 0
Dropped bytes error (maybe fixed) : 0
Duplicated bytes error (maybe fixed) : 0
Inconsistency in error sectors : 0
Track 08
Filename : /Users/Erebus/Flac Rips/Tricolor - Mirth and Feckless/08 - Endless.flac
Pre-gap length : 00:02:74
Track gain : -3.14 dB
Peak : 0.965515
CRC32 hash (test run) : 5670EECC
CRC32 hash : 5670EECC
CRC32 hash (skip zero) : 988F219D
AccurateRip signature : ECCA756D
->Accurately ripped! (confidence 1)
Statistics
Read error : 0
Skipped (treated as error) : 0
Edge jitter error (maybe fixed) : 0
Atom jitter error (maybe fixed) : 0
Drift error (maybe fixed) : 0
Dropped bytes error (maybe fixed) : 0
Duplicated bytes error (maybe fixed) : 0
Inconsistency in error sectors : 0
Track 09
Filename : /Users/Erebus/Flac Rips/Tricolor - Mirth and Feckless/09 - Feckless.flac
Pre-gap length : 00:02:01
Track gain : -7.79 dB
Peak : 0.965607
CRC32 hash (test run) : 074B5017
CRC32 hash : 074B5017
CRC32 hash (skip zero) : 8A019F23
AccurateRip signature : 00579B06
->Accurately ripped! (confidence 1)
Statistics
Read error : 0
Skipped (treated as error) : 0
Edge jitter error (maybe fixed) : 0
Atom jitter error (maybe fixed) : 0
Drift error (maybe fixed) : 0
Dropped bytes error (maybe fixed) : 0
Duplicated bytes error (maybe fixed) : 0
Inconsistency in error sectors : 0
Track 10
Filename : /Users/Erebus/Flac Rips/Tricolor - Mirth and Feckless/10 - Dark Money.flac
Pre-gap length : 00:02:00
Track gain : -7.63 dB
Peak : 0.965576
CRC32 hash (test run) : E8D25DBE
CRC32 hash : E8D25DBE
CRC32 hash (skip zero) : 993310E6
AccurateRip signature : 16B53B32
->Accurately ripped! (confidence 1)
Statistics
Read error : 0
Skipped (treated as error) : 0
Edge jitter error (maybe fixed) : 0
Atom jitter error (maybe fixed) : 0
Drift error (maybe fixed) : 0
Dropped bytes error (maybe fixed) : 0
Duplicated bytes error (maybe fixed) : 0
Inconsistency in error sectors : 0
Track 11
Filename : /Users/Erebus/Flac Rips/Tricolor - Mirth and Feckless/11 - Cumulus.flac
Pre-gap length : 00:02:00
Track gain : -8.19 dB
Peak : 0.965668
CRC32 hash (test run) : F17A50CD
CRC32 hash : F17A50CD
CRC32 hash (skip zero) : B9A12540
AccurateRip signature : 842E1602
->Accurately ripped! (confidence 1)
Statistics
Read error : 0
Skipped (treated as error) : 0
Edge jitter error (maybe fixed) : 0
Atom jitter error (maybe fixed) : 0
Drift error (maybe fixed) : 0
Dropped bytes error (maybe fixed) : 0
Duplicated bytes error (maybe fixed) : 0
Inconsistency in error sectors : 0
Track 12
Filename : /Users/Erebus/Flac Rips/Tricolor - Mirth and Feckless/12 - Airport.flac
Pre-gap length : 00:02:01
Track gain : -7.51 dB
Peak : 0.965576
CRC32 hash (test run) : 07421B5F
CRC32 hash : 07421B5F
CRC32 hash (skip zero) : 5B806B1E
AccurateRip signature : 49D7A515
->Accurately ripped! (confidence 1)
Statistics
Read error : 0
Skipped (treated as error) : 0
Edge jitter error (maybe fixed) : 0
Atom jitter error (maybe fixed) : 0
Drift error (maybe fixed) : 0
Dropped bytes error (maybe fixed) : 0
Duplicated bytes error (maybe fixed) : 0
Inconsistency in error sectors : 0
Track 13
Filename : /Users/Erebus/Flac Rips/Tricolor - Mirth and Feckless/13 - Chicago Cool.flac
Pre-gap length : 00:02:01
Track gain : -8.16 dB
Peak : 0.965607
CRC32 hash (test run) : E2352FA9
CRC32 hash : DC0FDF85
->Rip may not be accurate.
CRC32 hash (skip zero) : 3F057F61
AccurateRip signature : F530186E
->Rip may not be accurate.
Statistics
Read error : 0
Skipped (treated as error) : 0
Edge jitter error (maybe fixed) : 0
Atom jitter error (maybe fixed) : 0
Drift error (maybe fixed) : 0
Dropped bytes error (maybe fixed) : 0
Duplicated bytes error (maybe fixed) : 0
Inconsistency in error sectors : 0
Some inconsistencies found
End of status report
 
Содержание индексной карты (.CUE)
TITLE "Mirth + Feckless"
PERFORMER "Tricolor"
REM GENRE "Jazz"
REM DATE 1999
REM DISCID AC0B3D0D
FILE "01 - Pep.wav" WAVE
TRACK 01 AUDIO
TITLE "Pep"
INDEX 01 00:00:00
TRACK 02 AUDIO
TITLE "No Name"
INDEX 00 04:18:36
FILE "02 - No Name.wav" WAVE
INDEX 01 00:00:00
TRACK 03 AUDIO
TITLE "Mirth"
INDEX 00 01:34:56
FILE "03 - Mirth.wav" WAVE
INDEX 01 00:00:00
TRACK 04 AUDIO
TITLE "Go Free"
INDEX 00 04:01:43
FILE "04 - Go Free.wav" WAVE
INDEX 01 00:00:00
TRACK 05 AUDIO
TITLE "Thrive"
INDEX 00 02:10:26
FILE "05 - Thrive.wav" WAVE
INDEX 01 00:00:00
TRACK 06 AUDIO
TITLE "Seven"
INDEX 00 05:10:25
FILE "06 - Seven.wav" WAVE
INDEX 01 00:00:00
TRACK 07 AUDIO
TITLE "Quick Play"
INDEX 00 03:38:33
FILE "07 - Quick Play.wav" WAVE
INDEX 01 00:00:00
TRACK 08 AUDIO
TITLE "Endless"
INDEX 00 01:03:17
FILE "08 - Endless.wav" WAVE
INDEX 01 00:00:00
TRACK 09 AUDIO
TITLE "Feckless"
INDEX 00 05:23:61
FILE "09 - Feckless.wav" WAVE
INDEX 01 00:00:00
TRACK 10 AUDIO
TITLE "Dark Money"
INDEX 00 02:51:72
FILE "10 - Dark Money.wav" WAVE
INDEX 01 00:00:00
TRACK 11 AUDIO
TITLE "Cumulus"
INDEX 00 02:18:27
FILE "11 - Cumulus.wav" WAVE
INDEX 01 00:00:00
TRACK 12 AUDIO
TITLE "Airport"
INDEX 00 04:18:46
FILE "12 - Airport.wav" WAVE
INDEX 01 00:00:00
TRACK 13 AUDIO
TITLE "Chicago Cool"
INDEX 00 04:29:71
FILE "13 - Chicago Cool.wav" WAVE
INDEX 01 00:00:00
 
Лог проверки качества
AUDIOCHECKER v2.0 beta (build 457) - by Dester - opdester@freemail.hu
~~~~~~~~~~~~~~~~~~~~~~~~~~~~~~~~~~
-=== DO NOT EDIT THIS FILE! ===-
Path: ...\Tricolor - Mirth and Feckless - 1999 [FLAC]
01 -=- 01 - Pep.flac -=- CDDA (100%)
02 -=- 02 - No Name.flac -=- CDDA (100%)
03 -=- 03 - Mirth.flac -=- CDDA (100%)
04 -=- 04 - Go Free.flac -=- CDDA (100%)
05 -=- 05 - Thrive.flac -=- CDDA (99%)
06 -=- 06 - Seven.flac -=- CDDA (100%)
07 -=- 07 - Quick Play.flac -=- CDDA (99%)
08 -=- 08 - Endless.flac -=- CDDA (100%)
09 -=- 09 - Feckless.flac -=- CDDA (100%)
10 -=- 10 - Dark Money.flac -=- CDDA (100%)
11 -=- 11 - Cumulus.flac -=- CDDA (100%)
12 -=- 12 - Airport.flac -=- CDDA (100%)
13 -=- 13 - Chicago Cool.flac -=- CDDA (100%)
Summary 99,85% CDDA
203020644
Nonparticipant+Milk
1. Palpable (10:05)
2. Nonparticipant (7:55)
3. Unabashed (7:43)
4. Deceit (11:09)
5. Milk (8:56)
6. Cajole (7:54)
 
Лог создания рипа
X Lossless Decoder version 20100828 (120.6)
XLD extraction logfile from 2010-09-12 16:22:34 -0700
Tricolor / Nonparticipant + Milk
Used drive : OPTIARC DVD RW AD-5680H (revision 3AHB)
Use cdparanoia mode : YES (CDParanoia III 10.2 engine)
Disable audio cache : OK for the drive with cache less than 2750KB
Make use of C2 pointers : NO
Read offset correction : 48
Max retry count : 100
Gap status : Analyzed, Appended (except HTOA)
TOC of the extracted CD
Track | Start | Length | Start sector | End sector
---------------------------------------------------------
1 | 00:00:00 | 10:04:65 | 0 | 45364
2 | 10:04:65 | 07:54:56 | 45365 | 80970
3 | 17:59:46 | 07:42:41 | 80971 | 115661
4 | 25:42:12 | 11:09:13 | 115662 | 165849
5 | 36:51:25 | 08:55:55 | 165850 | 206029
6 | 45:47:05 | 07:54:25 | 206030 | 241604
All Tracks
Album gain : -7.96 dB
Peak : 1.000000
Track 01
Filename : /Users/Erebus/Flac Rips/Nonparticipant + Milk/01 - Palpable.flac
Pre-gap length : 00:02:00
Track gain : -6.14 dB
Peak : 1.000000
CRC32 hash (test run) : 4D082278
CRC32 hash : 4D082278
CRC32 hash (skip zero) : 7E7F48C3
AccurateRip signature : FEF77A73
->Accurately ripped! (confidence 1)
Statistics
Read error : 0
Skipped (treated as error) : 0
Edge jitter error (maybe fixed) : 0
Atom jitter error (maybe fixed) : 0
Drift error (maybe fixed) : 0
Dropped bytes error (maybe fixed) : 0
Duplicated bytes error (maybe fixed) : 0
Inconsistency in error sectors : 0
Track 02
Filename : /Users/Erebus/Flac Rips/Nonparticipant + Milk/02 - Nonparticipant.flac
Track gain : -8.49 dB
Peak : 1.000000
CRC32 hash (test run) : 822F0C38
CRC32 hash : 822F0C38
CRC32 hash (skip zero) : BA0A0C07
AccurateRip signature : 7A8812B3
->Accurately ripped! (confidence 1)
Statistics
Read error : 0
Skipped (treated as error) : 0
Edge jitter error (maybe fixed) : 0
Atom jitter error (maybe fixed) : 0
Drift error (maybe fixed) : 0
Dropped bytes error (maybe fixed) : 0
Duplicated bytes error (maybe fixed) : 0
Inconsistency in error sectors : 0
Track 03
Filename : /Users/Erebus/Flac Rips/Nonparticipant + Milk/03 - Unabashed.flac
Track gain : -7.19 dB
Peak : 1.000000
CRC32 hash (test run) : 0768FEDE
CRC32 hash : 0768FEDE
CRC32 hash (skip zero) : A8BFF719
AccurateRip signature : 3912F82F
->Accurately ripped! (confidence 1)
Statistics
Read error : 0
Skipped (treated as error) : 0
Edge jitter error (maybe fixed) : 0
Atom jitter error (maybe fixed) : 0
Drift error (maybe fixed) : 0
Dropped bytes error (maybe fixed) : 0
Duplicated bytes error (maybe fixed) : 0
Inconsistency in error sectors : 0
Track 04
Filename : /Users/Erebus/Flac Rips/Nonparticipant + Milk/04 - Deceit.flac
Track gain : -8.88 dB
Peak : 1.000000
CRC32 hash (test run) : 8B29552D
CRC32 hash : 8B29552D
CRC32 hash (skip zero) : DAD86B68
AccurateRip signature : 4FC22B30
->Accurately ripped! (confidence 1)
Statistics
Read error : 0
Skipped (treated as error) : 0
Edge jitter error (maybe fixed) : 0
Atom jitter error (maybe fixed) : 0
Drift error (maybe fixed) : 0
Dropped bytes error (maybe fixed) : 0
Duplicated bytes error (maybe fixed) : 0
Inconsistency in error sectors : 0
Track 05
Filename : /Users/Erebus/Flac Rips/Nonparticipant + Milk/05 - Milk.flac
Track gain : -8.90 dB
Peak : 1.000000
CRC32 hash (test run) : 5B775628
CRC32 hash : 5B775628
CRC32 hash (skip zero) : 4DC0FFCD
AccurateRip signature : B81ED512
->Accurately ripped! (confidence 1)
Statistics
Read error : 0
Skipped (treated as error) : 0
Edge jitter error (maybe fixed) : 0
Atom jitter error (maybe fixed) : 0
Drift error (maybe fixed) : 0
Dropped bytes error (maybe fixed) : 0
Duplicated bytes error (maybe fixed) : 0
Inconsistency in error sectors : 0
Track 06
Filename : /Users/Erebus/Flac Rips/Nonparticipant + Milk/06 - Cajole.flac
Track gain : -6.41 dB
Peak : 1.000000
CRC32 hash (test run) : 9CF474A5
CRC32 hash : 9CF474A5
CRC32 hash (skip zero) : 352F88FA
AccurateRip signature : 4D3C0E7F
->Accurately ripped! (confidence 1)
Statistics
Read error : 0
Skipped (treated as error) : 0
Edge jitter error (maybe fixed) : 0
Atom jitter error (maybe fixed) : 0
Drift error (maybe fixed) : 0
Dropped bytes error (maybe fixed) : 0
Duplicated bytes error (maybe fixed) : 0
Inconsistency in error sectors : 0
No errors occurred
End of status report
 
Содержание индексной карты (.CUE)
TITLE "Nonparticipant + Milk"
PERFORMER "Tricolor"
REM GENRE "Jazz"
REM DATE 2001
REM DISCID 440C9506
FILE "01 - Palpable.wav" WAVE
TRACK 01 AUDIO
TITLE "Palpable"
INDEX 01 00:00:00
FILE "02 - Nonparticipant.wav" WAVE
TRACK 02 AUDIO
TITLE "Nonparticipant"
INDEX 01 00:00:00
FILE "03 - Unabashed.wav" WAVE
TRACK 03 AUDIO
TITLE "Unabashed"
INDEX 01 00:00:00
FILE "04 - Deceit.wav" WAVE
TRACK 04 AUDIO
TITLE "Deceit"
INDEX 01 00:00:00
FILE "05 - Milk.wav" WAVE
TRACK 05 AUDIO
TITLE "Milk"
INDEX 01 00:00:00
FILE "06 - Cajole.wav" WAVE
TRACK 06 AUDIO
TITLE "Cajole"
INDEX 01 00:00:00
 
Лог проверки качества
AUDIOCHECKER v2.0 beta (build 457) - by Dester - opdester@freemail.hu
~~~~~~~~~~~~~~~~~~~~~~~~~~~~~~~~~~
-=== DO NOT EDIT THIS FILE! ===-
Path: ...\Tricolor - Nonparticipant + Milk - 2001 [FLAC]
1 -=- 01 - Palpable.flac -=- CDDA (100%)
2 -=- 02 - Nonparticipant.flac -=- CDDA (100%)
3 -=- 03 - Unabashed.flac -=- CDDA (100%)
4 -=- 04 - Deceit.flac -=- CDDA (100%)
5 -=- 05 - Milk.flac -=- CDDA (100%)
6 -=- 06 - Cajole.flac -=- CDDA (99%)
Summary 99,83% CDDA
122674964
По всем вопросам пишите личное сообщение пользователю M0p94ok.
03:31
158
Нет комментариев. Ваш будет первым!