Вы используете незарегистрированную версию компонента "Вкладки"!

Поиск

(Modern Creative) Leszek HeFi Wisniowski - Kinetyka - 2010, APE (image+.cue) lossless

Треклист:
Leszek HeFi Wisniowski / Kinetyka
Жанр: Modern Creative
Страна-производитель диска: Poland
Год издания диска: 2010
Издатель (лейбл): EWMusic
Номер по каталогу: 1001
Страна: Poland
Аудио кодек: APE (*.ape)
Тип рипа: image+.cue
Битрейт аудио: lossless
Продолжительность: 67:24
Источник (релизер): собственный рип
Наличие сканов в содержимом раздачи: да
Треклист:
1. Kinetyka / Kinetics
2. Taniec we mgle / A dance in the mist
3. Prestidigitator
4. St’Germain 141
5. Entropia / Entropy
6. Senni Rycerze / Sleepy knights
7. Taniec Chochoła cz. I / Chochol dance part I
8. Taniec Chochoła cz. II / Chochol dance part II
9. Prelude In E minor - moll Op.28 No. 4 - Impression
10. Krywań
bonus track
11. Mr. H.L. [dedicated to Hubert Laws]
 
Лог создания рипа
Exact Audio Copy V0.99 prebeta 4 from 23. January 2008
Отчёт EAC об извлечении, выполненном 26. сентября 2010, 17:23
Leszek HeFi Wisniowski Quartet / Kinetyka
Дисковод: Optiarc DVD RW AD-7200A Adapter: 3 ID: 1
Режим чтения : Достоверность
Использование точного потока : Да
Отключение кэша аудио : Да
Использование указателей C2 : Нет
Коррекция смещения при чтении : 48
Способность читать области Lead-in и Lead-out : Нет
Заполнение пропущенных сэмплов тишиной : Да
Удаление блоков с тишиной в начале и конце : Нет
При вычислениях CRC использовались нулевые сэмплы : Да
Интерфейс : Встроенный Win32-интерфейс для Win NT/2000
Выходной формат : Внутренние WAV-операции
Формат сэмплов : 44.100 Гц; 16 бит; стерео
TOC извлечённого CD
Трек | Старт | Длительность | Начальный сектор | Конечный сектор
---------------------------------------------------------------------
1 | 0:00.00 | 7:35.71 | 0 | 34195
2 | 7:35.71 | 5:55.70 | 34196 | 60890
3 | 13:31.66 | 7:55.51 | 60891 | 96566
4 | 21:27.42 | 7:10.42 | 96567 | 128858
5 | 28:38.09 | 6:11.11 | 128859 | 156694
6 | 34:49.20 | 6:26.63 | 156695 | 185707
7 | 41:16.08 | 7:14.01 | 185708 | 218258
8 | 48:30.09 | 3:24.08 | 218259 | 233566
9 | 51:54.17 | 4:32.13 | 233567 | 253979
10 | 56:26.30 | 5:10.55 | 253980 | 277284
11 | 61:37.10 | 5:48.25 | 277285 | 303409
Характеристики диапазона извлечения и сообщения об ошибках
Выбранный диапазон
Имя файла E:\Up-Down\Leszek HeFi Wisniowski Quartet - Kinetyka\Leszek HeFi Wisniowski Quartet - Kinetyka.wav
Пиковый уровень 98.8 %
Качество диапазона 100.0 %
CRC копии 09145CEC
Копирование... OK
Ошибок не произошло
AccurateRip: сводка
Трек 1 нет в базе данных
Трек 2 нет в базе данных
Трек 3 нет в базе данных
Трек 4 нет в базе данных
Трек 5 нет в базе данных
Трек 6 нет в базе данных
Трек 7 нет в базе данных
Трек 8 нет в базе данных
Трек 9 нет в базе данных
Трек 10 нет в базе данных
Трек 11 нет в базе данных
Ни одного трека нет в базе AccurateRip
Конец отчёта
Доп. информация: CD с концерта, очень яркое впечатление. Русскоязычных комментов не нашел - ссылки на польские сайты
 
Об исполнителе
 
Состав
Leszek HeFi Wisniowski- alto flute, C flute, tenor & soprano saxophone
Paweł Kaczmarczyk- electric piano, piano
Tomasz Kupiec- Bass
Bartek Staromiejski- Drums
Krzesimir Dębski -Violin (1,4,6,7,8)
Dominik Bieńczycki- Violin (1)
Pramath Kiran percusjon -(11)
Any questions -> support@pro-jazz.com. По всем вопросам пишите -> support@pro-jazz.com
03:32
164
Нет комментариев. Ваш будет первым!