Вы используете незарегистрированную версию компонента "Вкладки"!

Поиск

(Free Jazz) Sun Ra - The Heliocentric Worlds of Sun Ra Box Set (3cd) - 2010, FLAC (tracks+.cue) lossless

Треклист:
The Heliocentric Worlds of Sun Ra Box Set
Жанр: Free Jazz
Страна-производитель диска: США
Год издания диска: 2010
Издатель (лейбл): ESP Disk
Номер по каталогу: 4062
Страна: США
Аудио кодек: FLAC (*.flac)
Тип рипа: tracks+.cue
Битрейт аудио: lossless
Продолжительность: 1:49:38
Источник (релизер): другой трекер (coupler)
Наличие сканов в содержимом раздачи: да
Треклист:
DISC ONE:
1. Heliocentric
2. Outer Nothingness
3. Other Worlds
4. The Cosmos
5. Oh Heavenly Things
6. Nebulae
7. Dancing in the Sun
DISC TWO:
1. The Sun Myth
2. A House of Beauty
3. Cosmic Chaos
DISC THREE:
1. Intercosmosis
2. Mythology Metamorphosis
3. Heliocentric Worlds
4. World Worlds
5. Interplanetary Travelers
 
Лог создания рипа
X Lossless Decoder version 20101010 (123.3)
XLD extraction logfile from 2011-01-04 01:45:41 -0500
Sun Ra / The Heliocentric Worlds Box Set
Used drive : MATSHITA DVD-R UJ-867 (revision HA13)
Use cdparanoia mode : YES (CDParanoia III 10.2 engine)
Disable audio cache : OK for the drive with cache less than 2750KB
Make use of C2 pointers : NO
Read offset correction : 102
Max retry count : 100
Gap status : Analyzed, Appended (except HTOA)
TOC of the extracted CD
Track | Start | Length | Start sector | End sector
---------------------------------------------------------
1 | 00:00:00 | 04:19:27 | 0 | 19451
2 | 04:19:27 | 07:39:49 | 19452 | 53925
3 | 11:59:01 | 04:36:55 | 53926 | 74680
4 | 16:35:56 | 07:32:22 | 74681 | 108602
5 | 24:08:03 | 05:46:08 | 108603 | 134560
6 | 29:54:11 | 03:20:73 | 134561 | 149633
7 | 33:15:09 | 01:55:70 | 149634 | 158328
8 | 37:43:04 | 38:45:22 | 169729 | 344125
All Tracks
Album gain : 5.27 dB
Peak : 0.704803
Track 01
Filename : /we are the music makers/Sun Ra - The Heliocentric Worlds Box Set (Unknown Year) [FLAC]/01 - Sun Ra - Heliocentric.flac
Pre-gap length : 00:02:00
Track gain : 4.79 dB
Peak : 0.521545
CRC32 hash (test run) : 5EC6EEE4
CRC32 hash : 5EC6EEE4
CRC32 hash (skip zero) : 152240D9
AccurateRip signature : 09C8B3A6
->Track not present in AccurateRip database.
Statistics
Read error : 0
Skipped (treated as error) : 0
Edge jitter error (maybe fixed) : 0
Atom jitter error (maybe fixed) : 0
Drift error (maybe fixed) : 0
Dropped bytes error (maybe fixed) : 0
Duplicated bytes error (maybe fixed) : 0
Inconsistency in error sectors : 0
Track 02
Filename : /we are the music makers/Sun Ra - The Heliocentric Worlds Box Set (Unknown Year) [FLAC]/02 - Sun Ra - Outer Nothingness.flac
Track gain : 5.81 dB
Peak : 0.566406
CRC32 hash (test run) : C6AA2F3F
CRC32 hash : C6AA2F3F
CRC32 hash (skip zero) : BF2BE5BE
AccurateRip signature : 89C5C762
->Track not present in AccurateRip database.
Statistics
Read error : 0
Skipped (treated as error) : 0
Edge jitter error (maybe fixed) : 0
Atom jitter error (maybe fixed) : 0
Drift error (maybe fixed) : 0
Dropped bytes error (maybe fixed) : 0
Duplicated bytes error (maybe fixed) : 0
Inconsistency in error sectors : 0
Track 03
Filename : /we are the music makers/Sun Ra - The Heliocentric Worlds Box Set (Unknown Year) [FLAC]/03 - Sun Ra - Other Worlds.flac
Track gain : 4.57 dB
Peak : 0.495789
CRC32 hash (test run) : CF8C7C47
CRC32 hash : CF8C7C47
CRC32 hash (skip zero) : 553D116A
AccurateRip signature : 956AF697
->Track not present in AccurateRip database.
Statistics
Read error : 0
Skipped (treated as error) : 0
Edge jitter error (maybe fixed) : 0
Atom jitter error (maybe fixed) : 0
Drift error (maybe fixed) : 0
Dropped bytes error (maybe fixed) : 0
Duplicated bytes error (maybe fixed) : 0
Inconsistency in error sectors : 0
Track 04
Filename : /we are the music makers/Sun Ra - The Heliocentric Worlds Box Set (Unknown Year) [FLAC]/04 - Sun Ra - The Cosmos.flac
Track gain : 3.97 dB
Peak : 0.619781
CRC32 hash (test run) : 4EDC95F1
CRC32 hash : 4EDC95F1
CRC32 hash (skip zero) : 530142A7
AccurateRip signature : 69A8188A
->Track not present in AccurateRip database.
Statistics
Read error : 0
Skipped (treated as error) : 0
Edge jitter error (maybe fixed) : 0
Atom jitter error (maybe fixed) : 0
Drift error (maybe fixed) : 0
Dropped bytes error (maybe fixed) : 0
Duplicated bytes error (maybe fixed) : 0
Inconsistency in error sectors : 0
Track 05
Filename : /we are the music makers/Sun Ra - The Heliocentric Worlds Box Set (Unknown Year) [FLAC]/05 - Sun Ra - Oh Heavenly Things.flac
Track gain : 6.71 dB
Peak : 0.704803
CRC32 hash (test run) : 04C7DDD8
CRC32 hash : 04C7DDD8
CRC32 hash (skip zero) : 3CFBA1E4
AccurateRip signature : D2A5B11E
->Track not present in AccurateRip database.
Statistics
Read error : 0
Skipped (treated as error) : 0
Edge jitter error (maybe fixed) : 0
Atom jitter error (maybe fixed) : 0
Drift error (maybe fixed) : 0
Dropped bytes error (maybe fixed) : 0
Duplicated bytes error (maybe fixed) : 0
Inconsistency in error sectors : 0
Track 06
Filename : /we are the music makers/Sun Ra - The Heliocentric Worlds Box Set (Unknown Year) [FLAC]/06 - Sun Ra - Nebulae.flac
Track gain : 11.09 dB
Peak : 0.229309
CRC32 hash (test run) : 9B24B93C
CRC32 hash : 9B24B93C
CRC32 hash (skip zero) : 50602C93
AccurateRip signature : 5C40BC48
->Track not present in AccurateRip database.
Statistics
Read error : 0
Skipped (treated as error) : 0
Edge jitter error (maybe fixed) : 0
Atom jitter error (maybe fixed) : 0
Drift error (maybe fixed) : 0
Dropped bytes error (maybe fixed) : 0
Duplicated bytes error (maybe fixed) : 0
Inconsistency in error sectors : 0
Track 07
Filename : /we are the music makers/Sun Ra - The Heliocentric Worlds Box Set (Unknown Year) [FLAC]/07 - Sun Ra - Dancing in the Sun.flac
Track gain : 6.06 dB
Peak : 0.607300
CRC32 hash (test run) : 80E38AEF
CRC32 hash : 80E38AEF
CRC32 hash (skip zero) : 667C6B9B
AccurateRip signature : 18F16EFE
->Track not present in AccurateRip database.
Statistics
Read error : 0
Skipped (treated as error) : 0
Edge jitter error (maybe fixed) : 0
Atom jitter error (maybe fixed) : 0
Drift error (maybe fixed) : 0
Dropped bytes error (maybe fixed) : 0
Duplicated bytes error (maybe fixed) : 0
Inconsistency in error sectors : 0
No errors occurred
End of status report
X Lossless Decoder version 20101010 (123.3)
XLD extraction logfile from 2011-01-04 02:04:48 -0500
Sun Ra / The Heliocentric Worlds Box Set
Used drive : MATSHITA DVD-R UJ-867 (revision HA13)
Use cdparanoia mode : YES (CDParanoia III 10.2 engine)
Disable audio cache : OK for the drive with cache less than 2750KB
Make use of C2 pointers : NO
Read offset correction : 102
Max retry count : 100
Gap status : Analyzed, Appended (except HTOA)
TOC of the extracted CD
Track | Start | Length | Start sector | End sector
---------------------------------------------------------
1 | 00:00:00 | 18:21:37 | 0 | 82611
2 | 18:21:37 | 04:55:11 | 82612 | 104747
3 | 23:16:48 | 15:12:64 | 104748 | 173211
4 | 41:01:37 | 01:38:51 | 184612 | 192012
Track 01
Filename : /we are the music makers/Sun Ra - The Heliocentric Worlds Box Set (Unknown Year) [FLAC]/01 - Sun Ra - The Sun Myth.flac
Pre-gap length : 00:02:00
Track gain : 0.20 dB
Peak : 0.704834
CRC32 hash (test run) : 3C4B45B0
CRC32 hash : 3C4B45B0
CRC32 hash (skip zero) : FE3096DF
AccurateRip signature : 6D2896E5
->Track not present in AccurateRip database.
Statistics
Read error : 0
Skipped (treated as error) : 0
Edge jitter error (maybe fixed) : 0
Atom jitter error (maybe fixed) : 0
Drift error (maybe fixed) : 0
Dropped bytes error (maybe fixed) : 0
Duplicated bytes error (maybe fixed) : 0
Inconsistency in error sectors : 0
Track 02
Filename : /we are the music makers/Sun Ra - The Heliocentric Worlds Box Set (Unknown Year) [FLAC]/02 - Sun Ra - A House of Beauty.flac
Track gain : -0.92 dB
Peak : 0.697479
CRC32 hash (test run) : F7E6C3F5
CRC32 hash : F7E6C3F5
CRC32 hash (skip zero) : 287F418B
AccurateRip signature : 8BA57BC4
->Track not present in AccurateRip database.
Statistics
Read error : 0
Skipped (treated as error) : 0
Edge jitter error (maybe fixed) : 0
Atom jitter error (maybe fixed) : 0
Drift error (maybe fixed) : 0
Dropped bytes error (maybe fixed) : 0
Duplicated bytes error (maybe fixed) : 0
Inconsistency in error sectors : 0
Track 03
Filename : /we are the music makers/Sun Ra - The Heliocentric Worlds Box Set (Unknown Year) [FLAC]/03 - Sun Ra - Cosmic Chaos.flac
Track gain : -0.64 dB
Peak : 0.684326
CRC32 hash (test run) : 7DABAE3D
CRC32 hash : 7DABAE3D
CRC32 hash (skip zero) : AF67110F
AccurateRip signature : 51814F08
->Track not present in AccurateRip database.
Statistics
Read error : 0
Skipped (treated as error) : 0
Edge jitter error (maybe fixed) : 0
Atom jitter error (maybe fixed) : 0
Drift error (maybe fixed) : 0
Dropped bytes error (maybe fixed) : 0
Duplicated bytes error (maybe fixed) : 0
Inconsistency in error sectors : 0
No errors occurred
End of status report
X Lossless Decoder version 20101010 (123.3)
XLD extraction logfile from 2011-01-04 02:33:13 -0500
Sun Ra / The Heliocentric Worlds Box Set
Used drive : MATSHITA DVD-R UJ-867 (revision HA13)
Use cdparanoia mode : YES (CDParanoia III 10.2 engine)
Disable audio cache : OK for the drive with cache less than 2750KB
Make use of C2 pointers : NO
Read offset correction : 102
Max retry count : 100
Gap status : Analyzed, Appended (except HTOA)
TOC of the extracted CD
Track | Start | Length | Start sector | End sector
---------------------------------------------------------
1 | 00:00:00 | 17:05:06 | 0 | 76880
2 | 17:05:06 | 04:17:41 | 76881 | 96196
3 | 21:22:47 | 04:18:32 | 96197 | 115578
4 | 25:41:04 | 05:09:57 | 115579 | 138810
5 | 30:50:61 | 05:06:19 | 138811 | 161779
6 | 38:29:05 | 09:10:57 | 173180 | 214486
All Tracks
Album gain : 0.74 dB
Peak : 0.704895
Track 01
Filename : /we are the music makers/Sun Ra - The Heliocentric Worlds Box Set (2010) [FLAC]/01 - Sun Ra - Intercosmosis.flac
Pre-gap length : 00:02:00
Track gain : 0.04 dB
Peak : 0.612274
CRC32 hash (test run) : 54A122B4
CRC32 hash : 54A122B4
CRC32 hash (skip zero) : F2A6EE8D
AccurateRip signature : 1D118808
->Track not present in AccurateRip database.
Statistics
Read error : 0
Skipped (treated as error) : 0
Edge jitter error (maybe fixed) : 0
Atom jitter error (maybe fixed) : 0
Drift error (maybe fixed) : 0
Dropped bytes error (maybe fixed) : 0
Duplicated bytes error (maybe fixed) : 0
Inconsistency in error sectors : 0
Track 02
Filename : /we are the music makers/Sun Ra - The Heliocentric Worlds Box Set (2010) [FLAC]/02 - Sun Ra - Mythology Metamorphosis.flac
Track gain : 6.40 dB
Peak : 0.603363
CRC32 hash (test run) : AE16C2BF
CRC32 hash : AE16C2BF
CRC32 hash (skip zero) : 6EB9114E
AccurateRip signature : 5E89F5C8
->Track not present in AccurateRip database.
Statistics
Read error : 0
Skipped (treated as error) : 0
Edge jitter error (maybe fixed) : 0
Atom jitter error (maybe fixed) : 0
Drift error (maybe fixed) : 0
Dropped bytes error (maybe fixed) : 0
Duplicated bytes error (maybe fixed) : 0
Inconsistency in error sectors : 0
Track 03
Filename : /we are the music makers/Sun Ra - The Heliocentric Worlds Box Set (2010) [FLAC]/03 - Sun Ra - Heliocentric Worlds.flac
Track gain : 1.34 dB
Peak : 0.704895
CRC32 hash (test run) : A5E1EF7E
CRC32 hash : A5E1EF7E
CRC32 hash (skip zero) : EDC3DB55
AccurateRip signature : A74D47EC
->Track not present in AccurateRip database.
Statistics
Read error : 0
Skipped (treated as error) : 0
Edge jitter error (maybe fixed) : 0
Atom jitter error (maybe fixed) : 0
Drift error (maybe fixed) : 0
Dropped bytes error (maybe fixed) : 0
Duplicated bytes error (maybe fixed) : 0
Inconsistency in error sectors : 0
Track 04
Filename : /we are the music makers/Sun Ra - The Heliocentric Worlds Box Set (2010) [FLAC]/04 - Sun Ra - World Worlds.flac
Track gain : 1.68 dB
Peak : 0.544861
CRC32 hash (test run) : 8607BED3
CRC32 hash : 8607BED3
CRC32 hash (skip zero) : 08A4D725
AccurateRip signature : E603ADDE
->Track not present in AccurateRip database.
Statistics
Read error : 0
Skipped (treated as error) : 0
Edge jitter error (maybe fixed) : 0
Atom jitter error (maybe fixed) : 0
Drift error (maybe fixed) : 0
Dropped bytes error (maybe fixed) : 0
Duplicated bytes error (maybe fixed) : 0
Inconsistency in error sectors : 0
Track 05
Filename : /we are the music makers/Sun Ra - The Heliocentric Worlds Box Set (2010) [FLAC]/05 - Sun Ra - Interplanetary Travelers.flac
Track gain : 1.01 dB
Peak : 0.675079
CRC32 hash (test run) : 34D36032
CRC32 hash : 34D36032
CRC32 hash (skip zero) : A7758456
AccurateRip signature : 1871B0E8
->Track not present in AccurateRip database.
Statistics
Read error : 0
Skipped (treated as error) : 0
Edge jitter error (maybe fixed) : 0
Atom jitter error (maybe fixed) : 0
Drift error (maybe fixed) : 0
Dropped bytes error (maybe fixed) : 0
Duplicated bytes error (maybe fixed) : 0
Inconsistency in error sectors : 0
No errors occurred
End of status report
 
Содержание индексной карты (.CUE)
TITLE "The Heliocentric Worlds Box Set"
PERFORMER "Sun Ra"
REM GENRE "Jazz"
REM DISCNUMBER 1
REM TOTALDISCS 3
REM DISCID 7811EC08
REM REPLAYGAIN_ALBUM_GAIN 5.27 dB
REM REPLAYGAIN_ALBUM_PEAK 0.704803
FILE "01 - Sun Ra - Heliocentric.wav" WAVE
TRACK 01 AUDIO
TITLE "Heliocentric"
REM REPLAYGAIN_TRACK_GAIN 4.79 dB
REM REPLAYGAIN_TRACK_PEAK 0.521545
INDEX 01 00:00:00
FILE "02 - Sun Ra - Outer Nothingness.wav" WAVE
TRACK 02 AUDIO
TITLE "Outer Nothingness"
REM REPLAYGAIN_TRACK_GAIN 5.81 dB
REM REPLAYGAIN_TRACK_PEAK 0.566406
INDEX 01 00:00:00
FILE "03 - Sun Ra - Other Worlds.wav" WAVE
TRACK 03 AUDIO
TITLE "Other Worlds"
REM REPLAYGAIN_TRACK_GAIN 4.57 dB
REM REPLAYGAIN_TRACK_PEAK 0.495789
INDEX 01 00:00:00
FILE "04 - Sun Ra - The Cosmos.wav" WAVE
TRACK 04 AUDIO
TITLE "The Cosmos"
REM REPLAYGAIN_TRACK_GAIN 3.97 dB
REM REPLAYGAIN_TRACK_PEAK 0.619781
INDEX 01 00:00:00
FILE "05 - Sun Ra - Oh Heavenly Things.wav" WAVE
TRACK 05 AUDIO
TITLE "Oh Heavenly Things"
REM REPLAYGAIN_TRACK_GAIN 6.71 dB
REM REPLAYGAIN_TRACK_PEAK 0.704803
INDEX 01 00:00:00
FILE "06 - Sun Ra - Nebulae.wav" WAVE
TRACK 06 AUDIO
TITLE "Nebulae"
REM REPLAYGAIN_TRACK_GAIN 11.09 dB
REM REPLAYGAIN_TRACK_PEAK 0.229309
INDEX 01 00:00:00
FILE "07 - Sun Ra - Dancing in the Sun.wav" WAVE
TRACK 07 AUDIO
TITLE "Dancing in the Sun"
REM REPLAYGAIN_TRACK_GAIN 6.06 dB
REM REPLAYGAIN_TRACK_PEAK 0.607300
INDEX 01 00:00:00
TITLE "The Heliocentric Worlds Box Set"
PERFORMER "Sun Ra"
REM GENRE "Jazz"
REM DISCNUMBER 2
REM TOTALDISCS 2
REM DISCID 2B0A0004
FILE "01 - Sun Ra - The Sun Myth.wav" WAVE
TRACK 01 AUDIO
TITLE "The Sun Myth"
INDEX 01 00:00:00
FILE "02 - Sun Ra - A House of Beauty.wav" WAVE
TRACK 02 AUDIO
TITLE "A House of Beauty"
INDEX 01 00:00:00
FILE "03 - Sun Ra - Cosmic Chaos.wav" WAVE
TRACK 03 AUDIO
TITLE "Cosmic Chaos"
INDEX 01 00:00:00
TITLE "The Heliocentric Worlds Box Set"
PERFORMER "Sun Ra"
REM GENRE "Jazz"
REM DATE 2010
REM DISCNUMBER 3
REM TOTALDISCS 3
REM DISCID 3F0B2B06
FILE "01 - Sun Ra - Intercosmosis.wav" WAVE
TRACK 01 AUDIO
TITLE "Intercosmosis"
INDEX 01 00:00:00
FILE "02 - Sun Ra - Mythology Metamorphosis.wav" WAVE
TRACK 02 AUDIO
TITLE "Mythology Metamorphosis"
INDEX 01 00:00:00
FILE "03 - Sun Ra - Heliocentric Worlds.wav" WAVE
TRACK 03 AUDIO
TITLE "Heliocentric Worlds"
INDEX 01 00:00:00
FILE "04 - Sun Ra - World Worlds.wav" WAVE
TRACK 04 AUDIO
TITLE "World Worlds"
INDEX 01 00:00:00
FILE "05 - Sun Ra - Interplanetary Travelers.wav" WAVE
TRACK 05 AUDIO
TITLE "Interplanetary Travelers"
INDEX 01 00:00:00
 
Лог проверки качества
AUDIOCHECKER v2.0 beta (build 457) - by Dester - opdester@freemail.hu
~~~~~~~~~~~~~~~~~~~~~~~~~~~~~~~~~~
-=== DO NOT EDIT THIS FILE! ===-
Path: ...\CD1
01 -=- 01 - Sun Ra - Heliocentric.flac -=- CDDA (100%)
02 -=- 02 - Sun Ra - Outer Nothingness.flac -=- CDDA (100%)
03 -=- 03 - Sun Ra - Other Worlds.flac -=- CDDA (100%)
04 -=- 04 - Sun Ra - The Cosmos.flac -=- CDDA (100%)
05 -=- 05 - Sun Ra - Oh Heavenly Things.flac -=- CDDA (100%)
06 -=- 06 - Sun Ra - Nebulae.flac -=- CDDA (100%)
07 -=- 07 - Sun Ra - Dancing in the Sun.flac -=- CDDA (100%)
Summary 100,00% CDDA
162904980
AUDIOCHECKER v2.0 beta (build 457) - by Dester - opdester@freemail.hu
~~~~~~~~~~~~~~~~~~~~~~~~~~~~~~~~~~
-=== DO NOT EDIT THIS FILE! ===-
Path: ...\CD2
01 -=- 01 - Sun Ra - The Sun Myth.flac -=- CDDA (100%)
02 -=- 02 - Sun Ra - A House of Beauty.flac -=- CDDA (100%)
03 -=- 03 - Sun Ra - Cosmic Chaos.flac -=- CDDA (100%)
Summary 100,00% CDDA
168447028
AUDIOCHECKER v2.0 beta (build 457) - by Dester - opdester@freemail.hu
~~~~~~~~~~~~~~~~~~~~~~~~~~~~~~~~~~
-=== DO NOT EDIT THIS FILE! ===-
Path: ...\CD3
01 -=- 01 - Sun Ra - Intercosmosis.flac -=- CDDA (100%)
02 -=- 02 - Sun Ra - Mythology Metamorphosis.flac -=- CDDA (100%)
03 -=- 03 - Sun Ra - Heliocentric Worlds.flac -=- CDDA (100%)
04 -=- 04 - Sun Ra - World Worlds.flac -=- CDDA (100%)
05 -=- 05 - Sun Ra - Interplanetary Travelers.flac -=- CDDA (100%)
Summary 100,00% CDDA
19904276
 
Состав
Pat Patrick: Baritone, Percussion (except “Other Worlds”)
John Gilmore: Tenor, Tympani (“Heliocentric”, “Of Heavenly Things”)
Marshall Allen: Picolo, Alto, Bells, Spiral Cymbal (“The Cosmos”)
Ronnie Boykins: Bass
Teddy Nance: Trombone
Jimhmi Johnson: Percussion (“Other Worlds” ,”The Cosmos”), Tympani (“The Cosmos”)
Robert Cummings: Bass Clarinet, Wood Blocks
Chris Capers: Trumpet
Bernard Pettaway: Bass Trombone
Danny Davis: Flute, Alto (Ensemble)
Sun Ra: Bass Marimba, Electronic Celeste, Piano, Tympani (“Outer Nothingness”)

информация по видеофайлу Spaceways.mp4
видео: AVC 2253 Кбит/с, 640х480 (1.333), 29.970 кадров/с
аудио: AAC 128 Кбит/сек 2 канала, 48 кГц
 
Скриншоты видеофайла
По всем вопросам пишите личное сообщение пользователю M0p94ok.
03:31
235
Нет комментариев. Ваш будет первым!