Вы используете незарегистрированную версию компонента "Вкладки"!

Поиск

(Avant Garde, Soundtracks) The Big Gundown. John Zorn Plays the Music of Ennio Morricone - 1986, APE (image+.cue), lossless

(Avant Garde, Soundtracks) The Big Gundown. John Zorn Plays the Music of Ennio Morricone - 1986, APE (image+.cue), lossless
Треклист:
The Big Gundown
John Zorn Plays the Music of Ennio Morricone
Жанр: Avant Garde, Soundtracks
Год выпуска диска: 1986
Производитель диска: Германия
Аудио кодек: APE
Тип рипа: image+.cue
Битрейт аудио: lossless
Продолжительность: 50:42
 
Произведения и исполнители
 
1. The Big Gundown 7:26
Luli Shioi...vocals
Jim Staley...trombone, bass trombone
Bill Frisell...electric guitar
Anthony Coleman...piano, harpsichord, organ, vocals
David Weinstein...Mirage, microcomputer
Bobby Previte...percussion, tympani, vocals
Jorge Silva...surdo
Claudio Silva...pandeiro
Ciro Batista...cuico
Duduca Fonseca...caixa
Reinaldo Fernandes...repique
Arto Lindsay...batucada cintractor
John Zorn...alto saxophone, saw
 
2. Peur Sur La Ville 4:16
Orvin Aquart...harmonicas
Tim Berne...alto saxophone
Arto Lindsay...electric guitar, vocals
Wayne Horvitz...piano
Bob James...tapes
Anton Fier...drums
Bobby Previte...drums
John Zorn...vocals
 
3. Poverty (Once Upon A Time In America) 3:49
Toots Thielmans...whistling, harmonica
Gui Klucevsek...accordion
Carol Emanuel...harp
 
4. Milano Odea 3:03
Fred Frith...electric guitar
Jody Harris...electric guitar
Arto Lindsay...electric guitar
Melvin Gibbs...electric bass
Anton Fier...drums
John Zorn...harpsichord
 
5. Erotico (The Burglars) 4:27
Big John Patton...organ
Bill Frisell...electric guitar
Shelley Hirschb...vocals
Bobby Previte...drums
Laura Biscotto...sexy Italian vocals
 
6. Battle Of Algiers 3:50
Vicki Bodner...oboe, English horn
Christian Marclay...turntables
Wayne Horvitz...piano
Anton Fier...drums
 
7. Giù La Testa (Duck, You Sucker!) 6:06
Ned Rothenberg...shakuhatchi, ocarina, Jew's harp
Michihiro Sato...Tsugaru shamisen
Wayne Horvitz...organ, celeste, electronic keyboards
Vicki Bodner...English horn
Fred Frith...acoustic guitar
Bob James...tapes
Arto Lindsay...vocals
John Zorn...game calls, vocals
 
8. Metamorfosi (La Classe Operaia Va In Paradiso) 4:36
Diamanda Galas...vocals
Vernon Reid...electric guitar
Bob James...tapes
Polly Bradfield...violin
Mark Miller...drums, tympani
Wayne Horvitz...piano
John Zorn...piano
 
9. Tre Nel 5000 4:37
Jim Staley...trombone
Fred Frith...electric guitar
Bob James...tapes
Christian Marclay...turntables
Wayne Horvitz...piano, organ, celeste, electronic keyboards
David Weinstein...Mirage, microcomputer
Bobby Previte...percussion, tympani
John Zorn...game calls
 
10. Once Upon A Time In The West 8:32
Jody Harris...electric guitar
Robert Quine...electric guitar
Melvin Gibbs...electric bass
Orvin Aquart...harmonica
All compositions by Ennio Morricone except TRE NEL 5000 by John Zorn
Доп. информация: Оригинальное издание, не подвергнутое ремастерингу, рестайлингу, ребрендингу и бонусингу, как здесь.
 
Отчёт EAC
Exact Audio Copy V0.99 prebeta 4 from 23. January 2008
Отчёт EAC об извлечении, выполненном 25. августа 2009, 9:34
Zorn, John / The Big Gundown
Дисковод: ASUS DRW-20B1LT Adapter: 0 ID: 0
Режим чтения : Достоверность
Использование точного потока : Да
Отключение кэша аудио : Да
Использование указателей C2 : Нет
Коррекция смещения при чтении : 6
Способность читать области Lead-in и Lead-out : Нет
Заполнение пропущенных сэмплов тишиной : Да
Удаление блоков с тишиной в начале и конце : Нет
При вычислениях CRC использовались нулевые сэмплы : Да
Интерфейс : Установленный внешний ASPI-интерфейс
Выходной формат : Внутренние WAV-операции
Формат сэмплов : 44.100 Гц; 16 бит; стерео
TOC извлечённого CD
Трек | Старт | Длительность | Начальный сектор | Конечный сектор
---------------------------------------------------------------------
1 | 0:00.00 | 7:26.40 | 0 | 33489
2 | 7:26.40 | 4:16.10 | 33490 | 52699
3 | 11:42.50 | 3:49.02 | 52700 | 69876
4 | 15:31.52 | 3:03.45 | 69877 | 83646
5 | 18:35.22 | 4:27.03 | 83647 | 103674
6 | 23:02.25 | 3:50.37 | 103675 | 120961
7 | 26:52.62 | 6:06.25 | 120962 | 148436
8 | 32:59.12 | 4:36.65 | 148437 | 169201
9 | 37:36.02 | 4:37.48 | 169202 | 190024
10 | 42:13.50 | 8:32.05 | 190025 | 228429
Характеристики диапазона извлечения и сообщения об ошибках
Выбранный диапазон
Имя файла D:\черновики\John Zorn - The Big Gundown\John Zorn - The Big Gundown.wav
Пиковый уровень 65.0 %
Качество диапазона 100.0 %
CRC теста 70DF0F79
CRC копии 70DF0F79
Копирование... OK
Ошибок не произошло
AccurateRip: сводка
Трек 1 точное извлечение (доверие 7) [4EF18884]
Трек 2 точное извлечение (доверие 7) [3A4C1848]
Трек 3 точное извлечение (доверие 7) [C8B0B55D]
Трек 4 точное извлечение (доверие 7) [86D05CB0]
Трек 5 точное извлечение (доверие 7) [0B6BF5D2]
Трек 6 точное извлечение (доверие 7) [BEC5F977]
Трек 7 точное извлечение (доверие 7) [DDEE43C3]
Трек 8 точное извлечение (доверие 7) [CED26DA2]
Трек 9 точное извлечение (доверие 7) [FE657138]
Трек 10 точное извлечение (доверие 7) [044EED0D]
Все треки извлечены точно
Конец отчёта
Any questions -> support@pro-jazz.com. По всем вопросам пишите -> support@pro-jazz.com
13:59
192
Нет комментариев. Ваш будет первым!