Вы используете незарегистрированную версию компонента "Вкладки"!

Поиск

(Modern Creative / Post-Bop / Avant-Garde Jazz / Canterbury Scene) Elton Dean, Mark Sanders, Roberto Bellatalla - Into the Nierika - 1998, FLAC (image+.cue), lossless

(Modern Creative / Post-Bop / Avant-Garde Jazz / Canterbury Scene) Elton Dean, Mark Sanders, Roberto Bellatalla - Into the Nierika - 1998, FLAC (image+.cue), lossless
Треклист:
Elton Dean, Mark Sanders, Roberto Bellatalla - Into the Nierika
Жанр: Modern Creative / Post-Bop / Avant-Garde Jazz / Canterbury Scene
Год выпуска диска: 1998
Аудио кодек: FLAC
Тип рипа: image+.cue
Битрейт аудио: lossless
Продолжительность: 59:32
Трэклист:
1.Following Through 23:16
2.To Rahel and Back 12:34
3.Growing the Light 23:47
Доп. информация:
Elton Dean – Saxello / Alto Sax
Mark Sanders - Drums
Roberto Bellatalla - Bass
http://www.allmusic.com/cg/amg.dll?p=amg&sql=10:hbfixq8jldae
Рип с оригинального диска из собственной коллекции, сканы прилагаются.
 
Отчёт EAC
Exact Audio Copy V0.99 prebeta 3 from 28. July 2007
Отчёт EAC об извлечении, выполненном 24. августа 2009, 21:34
Elton Dean, Mark Sanders, Roberto Bellata / Into the Nierika
Дисковод: _NEC DVD_RW ND-3540A Adapter: 3 ID: 1
Режим чтения : Достоверность
Использование точного потока : Да
Отключение кэша аудио : Да
Использование указателей C2 : Нет
Коррекция смещения при чтении : 48
Способность читать области Lead-in и Lead-out : Нет
Заполнение пропущенных сэмплов тишиной : Да
Удаление блоков с тишиной в начале и конце : Нет
При вычислениях CRC использовались нулевые сэмплы : Да
Интерфейс : Установленный внешний ASPI-интерфейс
Выходной формат : Пользовательский кодировщик
Выбранный битрейт : 768 kBit/s
Качество : Высокий
Добавление ID3-тэга : Нет
Утилита сжатия : D:\БЫВШИЙ G\Program Files\Exact Audio Copy\FLAC\FLAC.EXE
Дополнительные параметры : -6 -V -T "ARTIST=%a" -T "TITLE=%t" -T "ALBUM=%g" -T "DATE=%y" -T "TRACKNUMBER=%n" -T "GENRE=%m" -T "COMMENT=%e" %s -o %d
TOC извлечённого CD
Трек | Старт | Длительность | Начальный сектор | Конечный сектор
---------------------------------------------------------------------
1 | 0:00.00 | 23:16.35 | 0 | 104734
2 | 23:16.35 | 12:34.20 | 104735 | 161304
3 | 35:50.55 | 23:47.64 | 161305 | 268393
Характеристики диапазона извлечения и сообщения об ошибках
Выбранный диапазон
Имя файла G:\_НА ОТДАЧУ\Elton Dean, Mark Sanders, Roberto Bellatalia - Into The Nierika\Elton Dean, Mark Sanders, Roberto Bellata - Into the Nierika.wav
Пиковый уровень 91.9 %
Качество диапазона 100.0 %
CRC копии 299A1EBF
Копирование... OK
Ошибок не произошло
Конец отчёта
Any questions -> support@pro-jazz.com. По всем вопросам пишите -> support@pro-jazz.com
14:00
163
Нет комментариев. Ваш будет первым!