Вы используете незарегистрированную версию компонента "Вкладки"!

Поиск

(Avant-Garde Jazz) Dennis Warren's Full Metal Revolutionary Jazz Ensemble - 7 In One - 1998, FLAC (image+.cue), lossless

(Avant-Garde Jazz) Dennis Warren's Full Metal Revolutionary Jazz Ensemble - 7 In One - 1998, FLAC (image+.cue), lossless
Треклист:
Dennis Warren's Full Metal Revolutionary Jazz Ensemble - 7 In One
Жанр: Avant-Garde Jazz
Год выпуска диска: 1998
Производитель диска: USA
Аудио кодек: FLAC
Тип рипа: image+.cue
Битрейт аудио: lossless
Трэклист:
 
скрытый текст
1.Jazz Iron 4:42
2.Metal Petals 8:47
3.First Hit 8:21
4.Rhumba X 5:05
5.Blues Ore 6:40
6.Hit Me D/M 4:31
7.Mercury 7:21
8.Molten Seeds 5:56
9.Ogun's Flight 10:40
Доп. информация:
Dennis Warren: drums, timbales
Earl Grant Lawrence: flutes
Raphe Malik: trumpet
Tor Yochai Snyder, Mike Sealy: electric guitar
Matrin Gil: congas, percussion
Albey Balgochian: electric bass
http://www.fmrje.com/
http://www.cdbaby.com/cd/warrendennis1
Рип с оригинального диска из собственной коллекции, сканы прилагаются.
 
Отчёт EAC
Exact Audio Copy V0.99 prebeta 3 from 28. July 2007
Отчёт EAC об извлечении, выполненном 24. августа 2009, 21:20
Dennis Warren's Full Metal Revolutionary Jazz Ensemble / 7 In One
Дисковод: _NEC DVD_RW ND-3540A Adapter: 3 ID: 1
Режим чтения : Достоверность
Использование точного потока : Да
Отключение кэша аудио : Да
Использование указателей C2 : Нет
Коррекция смещения при чтении : 48
Способность читать области Lead-in и Lead-out : Нет
Заполнение пропущенных сэмплов тишиной : Да
Удаление блоков с тишиной в начале и конце : Нет
При вычислениях CRC использовались нулевые сэмплы : Да
Интерфейс : Установленный внешний ASPI-интерфейс
Выходной формат : Пользовательский кодировщик
Выбранный битрейт : 768 kBit/s
Качество : Высокий
Добавление ID3-тэга : Нет
Утилита сжатия : D:\БЫВШИЙ G\Program Files\Exact Audio Copy\FLAC\FLAC.EXE
Дополнительные параметры : -6 -V -T "ARTIST=%a" -T "TITLE=%t" -T "ALBUM=%g" -T "DATE=%y" -T "TRACKNUMBER=%n" -T "GENRE=%m" -T "COMMENT=%e" %s -o %d
TOC извлечённого CD
Трек | Старт | Длительность | Начальный сектор | Конечный сектор
---------------------------------------------------------------------
1 | 0:00.00 | 4:42.67 | 0 | 21216
2 | 4:42.67 | 8:47.68 | 21217 | 60809
3 | 13:30.60 | 8:21.07 | 60810 | 98391
4 | 21:51.67 | 5:05.23 | 98392 | 121289
5 | 26:57.15 | 6:40.30 | 121290 | 151319
6 | 33:37.45 | 4:31.12 | 151320 | 171656
7 | 38:08.57 | 7:21.52 | 171657 | 204783
8 | 45:30.34 | 5:56.23 | 204784 | 231506
9 | 51:26.57 | 10:40.70 | 231507 | 279576
Характеристики диапазона извлечения и сообщения об ошибках
Выбранный диапазон
Имя файла G:\_НА ОТДАЧУ\Dennis Warren's Full Metal Revolutionary Jazz Ensemble - 7 In One\Dennis Warren's Full Metal Revolutionary Jazz Ensemble - 7 In One.wav
Пиковый уровень 89.3 %
Качество диапазона 100.0 %
CRC копии 186E1F64
Копирование... OK
Ошибок не произошло
Конец отчёта
Any questions -> support@pro-jazz.com. По всем вопросам пишите -> support@pro-jazz.com
13:59
143
Нет комментариев. Ваш будет первым!