Вы используете незарегистрированную версию компонента "Вкладки"!

Поиск

(Avant-Garde, Post Bop) John Coltrane & Don Cherry — The Avant-Garde (1960) — 2006, FLAC (tracks+.cue), lossless

Треклист:
John Coltrane & Don Cherry — The Avant-Garde (1960)
Жанр: Avant-Garde, Post Bop
Год выпуска диска: 2006
Производитель диска: Atlantic (WPCR-25103)
Аудио кодек: FLAC
Тип рипа: tracks+.cue
Битрейт аудио: lossless
Продолжительность: 36:23
Треклист:
01. Cherryco (6:50)
02. Focus On Sanity (12:17)
03. The Blessing (7:54)
04. The Invisible (4:16)
05. Bemsha Swing (5:06)
Personnel:
John Coltrane - soprano & tenor saxophones
Don Cherry - trumpet
Charlie Haden, Percy Heath - acoustic bass
Ed Blackwell - drums
   Автор рипа ruskaval
 
.log
Exact Audio Copy V0.99 prebeta 5 from 4. May 2009
EAC extraction logfile from 19. July 2010, 13:38
John Coltrane & Don Cherry / The Avant-Garde
Used drive : TSSTcorpCD/DVDW TS-H552L Adapter: 3 ID: 0
Read mode : Secure
Utilize accurate stream : Yes
Defeat audio cache : Yes
Make use of C2 pointers : No
Read offset correction : 6
Overread into Lead-In and Lead-Out : No
Fill up missing offset samples with silence : Yes
Delete leading and trailing silent blocks : No
Null samples used in CRC calculations : Yes
Used interface : Native Win32 interface for Win NT & 2000
Gap handling : Appended to previous track
Used output format : User Defined Encoder
Selected bitrate : 1024 kBit/s
Quality : High
Add ID3 tag : No
Command line compressor : C:\Program Files\FLAC\flac.exe
Additional command line options : -6 -V -T "ARTIST=%a" -T "TITLE=%t" -T "ALBUM=%g" -T "DATE=%y" -T "TRACKNUMBER=%n" -T "GENRE=%m" -T "COMMENT=EAC FLAC -6" %s
TOC of the extracted CD
Track | Start | Length | Start sector | End sector
---------------------------------------------------------
1 | 0:00.00 | 6:49.61 | 0 | 30735
2 | 6:49.61 | 12:17.27 | 30736 | 86037
3 | 19:07.13 | 7:54.30 | 86038 | 121617
4 | 27:01.43 | 4:15.40 | 121618 | 140782
5 | 31:17.08 | 5:05.43 | 140783 | 163700
Track 1
Filename C:\ruskaval\John Coltrane & Don Cherry - The Avant-Garde (1960) {2006 Japan Mini LP Edition, WPCR-25103}\01 - Cherryco.wav
Pre-gap length 0:00:02.00
Peak level 100.0 %
Track quality 100.0 %
Test CRC E8625BF6
Copy CRC E8625BF6
Accurately ripped (confidence 3) [9FE1418E]
Copy OK
Track 2
Filename C:\ruskaval\John Coltrane & Don Cherry - The Avant-Garde (1960) {2006 Japan Mini LP Edition, WPCR-25103}\02 - Focus On Sanity.wav
Pre-gap length 0:00:02.39
Peak level 100.0 %
Track quality 100.0 %
Test CRC BAA4154B
Copy CRC BAA4154B
Accurately ripped (confidence 3) [A68E73CF]
Copy OK
Track 3
Filename C:\ruskaval\John Coltrane & Don Cherry - The Avant-Garde (1960) {2006 Japan Mini LP Edition, WPCR-25103}\03 - The Blessing.wav
Pre-gap length 0:00:02.64
Peak level 100.0 %
Track quality 100.0 %
Test CRC 11E3E6BB
Copy CRC 11E3E6BB
Accurately ripped (confidence 3) [771AD9B7]
Copy OK
Track 4
Filename C:\ruskaval\John Coltrane & Don Cherry - The Avant-Garde (1960) {2006 Japan Mini LP Edition, WPCR-25103}\04 - The Invisible.wav
Pre-gap length 0:00:02.10
Peak level 100.0 %
Track quality 100.0 %
Test CRC 60F0110C
Copy CRC 60F0110C
Accurately ripped (confidence 3) [03BD6A06]
Copy OK
Track 5
Filename C:\ruskaval\John Coltrane & Don Cherry - The Avant-Garde (1960) {2006 Japan Mini LP Edition, WPCR-25103}\05 - Bemsha Swing.wav
Pre-gap length 0:00:05.15
Peak level 100.0 %
Track quality 100.0 %
Test CRC 21F9815D
Copy CRC 21F9815D
Accurately ripped (confidence 3) [BF2E68C5]
Copy OK
All tracks accurately ripped
No errors occurred
End of status report
 
.cue
REM GENRE Jazz
REM DATE 1960
REM DISCID 3C088605
REM COMMENT "ExactAudioCopy v0.99pb5"
PERFORMER "John Coltrane & Don Cherry"
TITLE "The Avant-Garde"
FILE "01 - Cherryco.wav" WAVE
TRACK 01 AUDIO
TITLE "Cherryco"
PERFORMER "John Coltrane & Don Cherry"
INDEX 01 00:00:00
TRACK 02 AUDIO
TITLE "Focus On Sanity"
PERFORMER "John Coltrane & Don Cherry"
INDEX 00 06:47:22
FILE "02 - Focus On Sanity.wav" WAVE
INDEX 01 00:00:00
TRACK 03 AUDIO
TITLE "The Blessing"
PERFORMER "John Coltrane & Don Cherry"
INDEX 00 12:14:38
FILE "03 - The Blessing.wav" WAVE
INDEX 01 00:00:00
TRACK 04 AUDIO
TITLE "The Invisible"
PERFORMER "John Coltrane & Don Cherry"
INDEX 00 07:52:20
FILE "04 - The Invisible.wav" WAVE
INDEX 01 00:00:00
TRACK 05 AUDIO
TITLE "Bemsha Swing"
PERFORMER "John Coltrane & Don Cherry"
INDEX 00 04:10:25
FILE "05 - Bemsha Swing.wav" WAVE
INDEX 01 00:00:00
   :arrow: Мои раздачи на трекере
По всем вопросам пишите личное сообщение пользователю M0p94ok.
01:26
114
Нет комментариев. Ваш будет первым!