Вы используете незарегистрированную версию компонента "Вкладки"!

Поиск

(Avant-Garde / Experimental / Modern Composition) Rich Woodson's Ellipsis - The Nail That Stands Up Gets Pounded Down - 2005, FLAC (image+.cue), lossless

(Avant-Garde / Experimental / Modern Composition) Rich Woodson's Ellipsis - The Nail That Stands Up Gets Pounded Down - 2005, FLAC (image+.cue), lossless
Треклист:
Rich Woodson's Ellipsis - The Nail That Stands Up Gets Pounded Down

Жанр: Avant-Garde / Experimental / Modern Composition
Год выпуска диска: 2005
Производитель диска: Self Produced; USA
Аудио кодек: FLAC
Тип рипа: image+.cue
Битрейт аудио: lossless
Продолжительность: 40:13
Anthony Burr: clarinet
Aaron Stewart: tenor saxophone
Rich Woodson: guitar
Mat Fieldes: bass
John Hollenbeck: drums
1. Looking for the Right Reflection
2. Let's Talk About Virtue
3. Nerve Ending XXIII
4. It Came from Above
5. Cerebral Love
6. Nerve Ending XIII
7. Flames from an Unlikely Source
8. Vagueness
9. Animal Magnetism
10. Ambivalence Saves the Day
 
AAJ Review
A widespread practice among high school jazz bands is the requirement that students stand up as they take solos, removing all doubt as to where the audience should direct its attention. It is unsurprising that a society which promotes individuality would encourage its young musicians to show off, or that it would nurture the one-track minds of spectators. In contrast, Eastern cultures have long stressed the importance of collectivism, an idea that is reflected in the title of this effort by Rich Woodson's Ellipsis, derived from a Japanese proverb.
The foundation of Woodson's music is sturdy because its "nails"—Peter Epstein (soprano sax), Anthony Burr (clarinet), Aaron Stewart (tenor sax), Mat Fieldes (bass), John Hollenbeck (drums) and Woodson himself (guitar)—are pounded so firmly into place. The back cover finds Woodson proudly announcing the lack of improvisation on the album; it's hardly the first solo-free recording, so why include the disclaimer?
The composer's intentions become more apparent upon hearing the disc. The Nail That Stands Up Gets Pounded Down is a continuous forty-minute stream of prog-rock prolixity, written in a limited dynamic range and stationary tempo, suggesting a kind of Oulipian exercise in restricted parameters. Each instrumental line is distinguishable from the whole, but none is given precedence over the others.
Note for note, there is more musical information in just a few seconds of Nail than some artists manage to express in an entire discography. Moreover, hearing those few seconds will justify the five-year hiatus that has elapsed since Control and Resistance, the group's 2000 debut on Cuneiform Records. It seems that Woodson has spent the intervening years feverishly composing Nail, which is extraordinarily complex but bears the spontaneity of improvised music. A culinary equivalent would be a canister of nutrient-dense protein powder, consumed in one Tasmanian Devil-sized gulp.
The sound of Ellipsis is not wholly unprecedented: Frank Zappa, Rock in Opposition bands, and like-minded artists championed by Cuneiform have provided a critical framework in which to situate Woodson's output, and the internet has yielded a niche market for such music. Commercially speaking, however, the composer is not doing himself any favors by refusing to squeeze his ambitious ideas into song-length compositions, or to underscore them with pandering grooves.
Listeners who only use ten percent of their ears are going to need that untapped ninety percent to appreciate Rich Woodson's Ellipsis. Identifying a memorable motif on this disc is not akin to finding a needle in a haystack; rather, it's like finding a needle in a gigantic pile of needles. With The Nail That Stands Up Gets Pounded Down, Woodson has crafted a musical Finnegans Wake—an intricate, cerebral and elliptical work, indeed. ~ Brad Glanden, AAJ
 
EAC Report
Exact Audio Copy V0.99 prebeta 4 from 23. January 2008
EAC extraction logfile from 17. July 2010, 23:00
Rich Woodson's Ellipsis / The Nail That Stands Up Gets Pounded Down
Used drive : TSSTcorpCD/DVDW SH-S182M Adapter: 2 ID: 0
Read mode : Secure
Utilize accurate stream : Yes
Defeat audio cache : Yes
Make use of C2 pointers : No
Read offset correction : 6
Overread into Lead-In and Lead-Out : No
Fill up missing offset samples with silence : Yes
Delete leading and trailing silent blocks : No
Null samples used in CRC calculations : Yes
Used interface : Installed external ASPI interface
Used output format : User Defined Encoder
Selected bitrate : 1024 kBit/s
Quality : High
Add ID3 tag : No
Command line compressor : C:\Program Files\Exact Audio Copy\Flac\flac.exe
Additional command line options : -6 -V -T "ARTIST=%a" -T "TITLE=%t" -T "ALBUM=%g" -T "DATE=%y" -T "TRACKNUMBER=%n" -T "GENRE=%m" -T "COMMENT=EAC FLAC -6" %s
TOC of the extracted CD
Track | Start | Length | Start sector | End sector
---------------------------------------------------------
1 | 0:00.00 | 3:46.22 | 0 | 16971
2 | 3:46.22 | 5:44.58 | 16972 | 42829
3 | 9:31.05 | 0:11.30 | 42830 | 43684
4 | 9:42.35 | 7:40.28 | 43685 | 78212
5 | 17:22.63 | 2:04.41 | 78213 | 87553
6 | 19:27.29 | 0:25.71 | 87554 | 89499
7 | 19:53.25 | 3:06.32 | 89500 | 103481
8 | 22:59.57 | 8:37.08 | 103482 | 142264
9 | 31:36.65 | 5:00.43 | 142265 | 164807
10 | 36:37.33 | 3:35.21 | 164808 | 180953
Range status and errors
Selected range
Filename C:\Users\Igor\Music\eac\Rich Woodson's Ellipsis - The Nail That Stands Up Gets Pounded Down.wav
Peak level 98.8 %
Range quality 100.0 %
Test CRC B1FA4765
Copy CRC B1FA4765
Copy OK
No errors occurred
AccurateRip summary
Track 1 not present in database
Track 2 not present in database
Track 3 not present in database
Track 4 not present in database
Track 5 not present in database
Track 6 not present in database
Track 7 not present in database
Track 8 not present in database
Track 9 not present in database
Track 10 not present in database
None of the tracks are present in the AccurateRip database
End of status report

рип собственный
Any questions -> support@pro-jazz.com. По всем вопросам пишите -> support@pro-jazz.com
01:25
123
Нет комментариев. Ваш будет первым!