Вы используете незарегистрированную версию компонента "Вкладки"!

Поиск

(Avant-Garde / Experimental / Knitting Factory) Samm Bennett - The Big Off - 1993, FLAC (image+.cue), lossless

Треклист:
Samm Bennett - The Big Off

Жанр: Avant-Garde / Experimental / Knitting Factory
Год выпуска диска: Knitting Factory Works KFW 126; 1993
Производитель диска: USA
Аудио кодек: FLAC
Тип рипа: image+.cue
Битрейт аудио: lossless
Продолжительность: 1:07:04
Samm Bennett: vocals, samples, drums, percussion, electric percussion, keyboards, mistakes
The Dog: guitar, harmonica, slide guitar, backing vocal (1,2,3,5,8,10,11,12,14,15)
Roger Kleier: guitar (1,6)
Kato Hideki: bass (1,5,6,9)
Sebastian Steinberg: wah-wah bass, bass (2,8,11)
Dickie Dworkin: drums (2,11)
Remi Sammy: vocal (2)
Peter Beckerman: hand claps (3)
Hahn Rowe: guitar, electric violin (4,12)
Annie Gosfield: keyboard (4,10,12)
Ned Rothenberg: saxophone (6)
Frank London: trumpet (6)
Curtis Fowlkes: trombone (6)
Kazutoki Umezu: saxophone (6)
John Medeski: Hammond B3 organ (8)
Billy Martin: drums (8,11)
David Soldier: violin (10)
Oren Bloedow: bass (14)
Andy Milburn: programming (15)
Gary Lucas: guitar (15)
1. Rich Man's Dog
2. Buckets and Big Ideas
3. Blue Jay Way
4. Desert Story
5. Little Money Creek
6. Hey You
7. Empty Song
8. Nervous Laughter
9. Billions and Billions of Hamburgers Sold
10. Sacred Cow Killer
11. No Go Between
12. Interrogation
13. Motherless Child
14. Morning Incident
15. Hail the Hero
16. No Friend of Mine
17. I Could See Your Dream
Recorded at Tomandandy, New York City
 
EAC Report
Exact Audio Copy V0.99 prebeta 5 from 4. May 2009
EAC extraction logfile from 26. December 2009, 13:05
Samm Bennett / The Big Off
Used drive : hp DVD-RAM GH40L Adapter: 0 ID: 1
Read mode : Secure
Utilize accurate stream : Yes
Defeat audio cache : Yes
Make use of C2 pointers : No
Read offset correction : 667
Overread into Lead-In and Lead-Out : No
Fill up missing offset samples with silence : Yes
Delete leading and trailing silent blocks : No
Null samples used in CRC calculations : Yes
Used interface : Installed external ASPI interface
Used output format : User Defined Encoder
Selected bitrate : 1024 kBit/s
Quality : High
Add ID3 tag : No
Command line compressor : C:\Program Files\Exact Audio Copy\Flac\flac.exe
Additional command line options : -6 -V -T "ARTIST=%a" -T "TITLE=%t" -T "ALBUM=%g" -T "DATE=%y" -T "TRACKNUMBER=%n" -T "GENRE=%m" -T "COMMENT=EAC FLAC -6" %s
TOC of the extracted CD
Track | Start | Length | Start sector | End sector
---------------------------------------------------------
1 | 0:00.32 | 3:33.10 | 32 | 16016
2 | 3:33.42 | 3:49.25 | 16017 | 33216
3 | 7:22.67 | 3:35.20 | 33217 | 49361
4 | 10:58.12 | 4:19.63 | 49362 | 68849
5 | 15:18.00 | 3:49.70 | 68850 | 86094
6 | 19:07.70 | 4:45.15 | 86095 | 107484
7 | 23:53.10 | 3:03.10 | 107485 | 121219
8 | 26:56.20 | 4:41.52 | 121220 | 142346
9 | 31:37.72 | 3:17.10 | 142347 | 157131
10 | 34:55.07 | 4:16.00 | 157132 | 176331
11 | 39:11.07 | 4:59.25 | 176332 | 198781
12 | 44:10.32 | 5:44.33 | 198782 | 224614
13 | 49:54.65 | 4:01.30 | 224615 | 242719
14 | 53:56.20 | 2:39.27 | 242720 | 254671
15 | 56:35.47 | 4:24.45 | 254672 | 274516
16 | 61:00.17 | 3:07.33 | 274517 | 288574
17 | 64:07.50 | 2:56.37 | 288575 | 301811
Range status and errors
Selected range
Filename C:\Users\Igor\Music\eac\Samm Bennett - The Big Off.wav
Peak level 100.0 %
Range quality 100.0 %
Test CRC B2BC4246
Copy CRC B2BC4246
Copy OK
No errors occurred
AccurateRip summary
Track 1 not present in database
Track 2 not present in database
Track 3 not present in database
Track 4 not present in database
Track 5 not present in database
Track 6 not present in database
Track 7 not present in database
Track 8 not present in database
Track 9 not present in database
Track 10 not present in database
Track 11 not present in database
Track 12 not present in database
Track 13 not present in database
Track 14 not present in database
Track 15 not present in database
Track 16 not present in database
Track 17 not present in database
None of the tracks are present in the AccurateRip database
End of status report

рип собственный
Any questions -> support@pro-jazz.com. По всем вопросам пишите -> support@pro-jazz.com
01:27
113
Нет комментариев. Ваш будет первым!