Вы используете незарегистрированную версию компонента "Вкладки"!

Поиск

(Avant-Garde, Modern Creative, Post-Bop, Splasc(H)) [CD] Tiziano Tononi & The Society of Freely Sincopated Organic Pulses - We Dit It, We Did It! (Rahsaan & the None) (3CDs) - 2000, FLAC (tracks+.cue), lossless

(Avant-Garde, Modern Creative, Post-Bop, Splasc(H)) [CD] Tiziano Tononi & The Society of Freely Sincopated Organic Pulses - We Dit It, We Did It! (Rahsaan & the None) (3CDs) - 2000, FLAC (tracks+.cue), lossless
Издатель (лейбл):
Треклист:
Tiziano Tononi & The Society of Freely Sincopated Organic Pulses / We Dit It, We Did It! (Rahsaan & the None) (3CDs)
Жанр: Avant-Garde, Modern Creative, Post-Bop, Splasc(H)
Носитель: CD
Страна-производитель диска: Italy
Год издания: 2000
Издатель (лейбл): Splasc(H) Records
Номер по каталогу: CDH 811/812/813.2
Аудиокодек: FLAC (*.flac)
Тип рипа: tracks+.cue
Битрейт аудио: lossless
Продолжительность: 1:18:14 + 1:19:06 + 1:18:29
Источник (релизер): я
Наличие сканов в содержимом раздачи: нет
Треклист:
Disc 1

Part I: (Rah)ndom Thoughts
01. De-Tuning #1 (Tononi) 0:59
02. Amazing Grace (trad., arr. Tononi) 4:10
03. Open Strings (Tononi) 3:07
04. We Free Kings (Kirk) 2:48
05. A Handful of Fives (Kirk) 3:09
06. Duality (Tononi) 2:38
07. A Laugh for Rory (Kirk) 4:30
Ins: Echoes of Ellington
08. The Creole Love Call (Ellington) 9:47
09. The Mooche (Ellington / Mills) 12:14
Part II: (Rah)ther Black and Blue
10. Happy, Sad, Like Everybody Else (Tononi) 3:48
11. The Black & Crazy Blues (Kirk) 9:28
12. Juxtaposition: Against / With (Tononi) 1:53
13. Geo(metrics) (Tononi) 3:03
14. The Inflated Tear (Kirk) 6:30
15. Theme for the Eulipions: Recitation / Instrumental / Vocal (Kirk) 10:11

Disc 2

Part III: Ar(rah)iving Soon
01. Isn’t It That Crazy ? (Tononi) 1:17
02. Variable Density (Tononi) 5:46
03. Pedal Up (Kirk) 3:50
04. Chamber Music… (Tononi) 0:44
05. … Getting Groovy (Tononi) 0:58
06. Clickety Clack (Kirk) 2:28
07. Serenade to a Cuckoo (Kirk) 6:30
Ins: Fats & Bechet
08. The Jitterbug Waltz (Waller) 4:35
09. Petite Fleur (Bechet) 4:50
Part IV : (Rah) ’n’ Roll
10. The Sacred Metal Forest (Tononi) 5:21
11. Blacknuss (Kirk) 1:34
12. 15 Miles / Electric (Tononi) 4:16
13. The 3 Tenors (Tononi) 2:15
14. Spirits Up Above (Kirk) 4:17
15. Olù-Batà (Tononi) 1:57
16. Volunteered Slavery (Kirk) 7:32
If you’re not part of the solution, you’re part of the problem: the Mingus / Shepp Medley
17. Ecclusiastics (Mingus) 5:18
18. Goodbye, Pork-Pie Hat (Mingus) 7:19
19. Remember Rockefeller at Attica (Mingus) 3:31
20. Attica Blues (Shepp) 4:49
Disc 3
Part V: (Rah)zzle-Dazzle
01. Orchestral De-Tuning #2 in Gb (Tononi) 0:40
02. Gongs, 5’S & 7’S (Tononi) 3:47
03. Rip, Gig & Panic (Kirk) 4:42
04. Mistical Movement (Tononi) 1:44
05. Slippery, Hippery, Flippery (Kirk) 2:45
06. White Noise, No Noise (Tononi) 2:54
07. Narrow Bolero (The Jungle Version) (Kirk) 3:12
08. No Tonic Press (Kirk) 5:16
Ins: Monk & Trane
09. Misterioso (Monk) 3:02
10. After the Rain (Coltrane) 6:08
Part VI: (Rah)mble in the Jungle
11. Ebrauqs (Kirk) 10:37
12. The Multiphonics Tuba Trio (Tononi) 2:08
13. Slippery, Hippery, Flippery (Kirk) 7:34
14. Juarez (Kirk) 11:11
Ins: Ode to Black Music: Wonder Hendrix Marley
15. Master Blaster (Wonder) 4:12
16. Hear My Train ‘A Comin’ (Hendrix) 4:31
17. Redemption Song (Marley) 4:08
Recorded at Studio L’Isola, Milan, December 11-17 & 20-23, 1999.
 
Лог создания рипа
 
Disc 1
Exact Audio Copy V1.0 beta 3 from 29. August 2011
EAC extraction logfile from 11. February 2014, 12:36
Tiziano Tononi & The Society of Freely Sincopated Organic Pulses / We Did It, We Did It! (Rahsaan & the None) (Disc 1)
Used drive : SlimtypeeNAU508 5 Adapter: 1 ID: 0
Read mode : Secure
Utilize accurate stream : Yes
Defeat audio cache : Yes
Make use of C2 pointers : No
Read offset correction : 6
Overread into Lead-In and Lead-Out : No
Fill up missing offset samples with silence : Yes
Delete leading and trailing silent blocks : No
Null samples used in CRC calculations : Yes
Used interface : Native Win32 interface for Win NT & 2000
Gap handling : Appended to previous track
Used output format : User Defined Encoder
Selected bitrate : 768 kBit/s
Quality : High
Add ID3 tag : No
Command line compressor : C:\Program Files (x86)\Exact Audio Copy\Flac\flac.exe
Additional command line options : -8 -V -T "ARTIST=%artist%" -T "TITLE=%title%" -T "ALBUM=%albumtitle%" -T "DATE=%year%" -T "TRACKNUMBER=%tracknr%" -T "GENRE=%genre%" -T "PERFORMER=%albuminterpret%" -T "COMPOSER=%composer%" %haslyrics%--tag-from-file=LYRICS="%lyricsfile%"%haslyrics% -T "ALBUMARTIST=%albumartist%" -T "DISCNUMBER=%cdnumber%" -T "TOTALDISCS=%totalcds%" -T "TOTALTRACKS=%numtracks%" -T "COMMENT=%comment%" %source% -o %dest%
TOC of the extracted CD
Track | Start | Length | Start sector | End sector
---------------------------------------------------------
1 | 0:00.00 | 0:59.12 | 0 | 4436
2 | 0:59.12 | 4:09.49 | 4437 | 23160
3 | 5:08.61 | 3:06.43 | 23161 | 37153
4 | 8:15.29 | 2:47.57 | 37154 | 49735
5 | 11:03.11 | 3:08.64 | 49736 | 63899
6 | 14:12.00 | 2:37.68 | 63900 | 75742
7 | 16:49.68 | 4:30.25 | 75743 | 96017
8 | 21:20.18 | 9:47.11 | 96018 | 140053
9 | 31:07.29 | 12:13.47 | 140054 | 195075
10 | 43:21.01 | 3:47.46 | 195076 | 212146
11 | 47:08.47 | 9:27.40 | 212147 | 254711
12 | 56:36.12 | 1:53.22 | 254712 | 263208
13 | 58:29.34 | 3:03.24 | 263209 | 276957
14 | 61:32.58 | 6:30.17 | 276958 | 306224
15 | 68:03.00 | 10:11.09 | 306225 | 352058
Track 1
Filename C:\EAC rips\01 - De-Tuning #1.wav
Pre-gap length 0:00:02.00
Peak level 84.2 %
Extraction speed 1.6 X
Track quality 100.0 %
Test CRC 00CFF0A8
Copy CRC 00CFF0A8
Accurately ripped (confidence 3) [414375C9] (AR v1)
Copy OK
Track 2
Filename C:\EAC rips\02 - Amazing Grace.wav
Peak level 99.8 %
Extraction speed 2.0 X
Track quality 99.9 %
Test CRC 77A9AE63
Copy CRC 77A9AE63
Accurately ripped (confidence 3) [F159E0D2] (AR v1)
Copy OK
Track 3
Filename C:\EAC rips\03 - Open Strings.wav
Peak level 100.0 %
Extraction speed 2.0 X
Track quality 99.9 %
Test CRC 113C6101
Copy CRC 113C6101
Accurately ripped (confidence 3) [910895A5] (AR v1)
Copy OK
Track 4
Filename C:\EAC rips\04 - We Free Kings.wav
Peak level 100.0 %
Extraction speed 2.6 X
Track quality 100.0 %
Test CRC 5AE1191E
Copy CRC 5AE1191E
Accurately ripped (confidence 3) [B272C1C9] (AR v1)
Copy OK
Track 5
Filename C:\EAC rips\05 - A Handful of Fives.wav
Peak level 100.0 %
Extraction speed 2.8 X
Track quality 100.0 %
Test CRC 8FD42778
Copy CRC 8FD42778
Accurately ripped (confidence 3) [56ED47F7] (AR v1)
Copy OK
Track 6
Filename C:\EAC rips\06 - Duality.wav
Peak level 98.5 %
Extraction speed 2.8 X
Track quality 100.0 %
Test CRC 131F41D1
Copy CRC 131F41D1
Accurately ripped (confidence 3) [D718DF77] (AR v1)
Copy OK
Track 7
Filename C:\EAC rips\07 - A Laugh for Rory.wav
Peak level 100.0 %
Extraction speed 3.2 X
Track quality 100.0 %
Test CRC 9ECF091C
Copy CRC 9ECF091C
Accurately ripped (confidence 3) [5C4750A4] (AR v1)
Copy OK
Track 8
Filename C:\EAC rips\08 - The Creole Love Call.wav
Pre-gap length 0:00:05.45
Peak level 100.0 %
Extraction speed 3.8 X
Track quality 100.0 %
Test CRC 2C2B4BAA
Copy CRC 2C2B4BAA
Accurately ripped (confidence 3) [46F9E5AF] (AR v1)
Copy OK
Track 9
Filename C:\EAC rips\09 - The Mooche.wav
Peak level 100.0 %
Extraction speed 4.2 X
Track quality 100.0 %
Test CRC 385AAAE1
Copy CRC 385AAAE1
Accurately ripped (confidence 3) [720D8868] (AR v1)
Copy OK
Track 10
Filename C:\EAC rips\10 - Happy, Sad, Like Everybody Else.wav
Pre-gap length 0:00:05.45
Peak level 99.9 %
Extraction speed 4.0 X
Track quality 100.0 %
Test CRC 72198A87
Copy CRC 72198A87
Accurately ripped (confidence 3) [0926555F] (AR v1)
Copy OK
Track 11
Filename C:\EAC rips\11 - The Black & Crazy Blues (for John Gilmore).wav
Peak level 99.8 %
Extraction speed 4.6 X
Track quality 100.0 %
Test CRC CB039CAD
Copy CRC CB039CAD
Accurately ripped (confidence 3) [AF14B16D] (AR v1)
Copy OK
Track 12
Filename C:\EAC rips\12 - Juxtaposition - Against - With.wav
Peak level 99.2 %
Extraction speed 3.8 X
Track quality 100.0 %
Test CRC D0D7C1C3
Copy CRC D0D7C1C3
Accurately ripped (confidence 3) [E20EFC13] (AR v1)
Copy OK
Track 13
Filename C:\EAC rips\13 - Geo(metrics).wav
Peak level 99.4 %
Extraction speed 4.3 X
Track quality 100.0 %
Test CRC 62C9FE2F
Copy CRC 62C9FE2F
Accurately ripped (confidence 3) [7BD529DC] (AR v1)
Copy OK
Track 14
Filename C:\EAC rips\14 - The Inflated Tear.wav
Peak level 99.9 %
Extraction speed 4.8 X
Track quality 100.0 %
Test CRC 4F9579AE
Copy CRC 4F9579AE
Accurately ripped (confidence 3) [9AB57066] (AR v1)
Copy OK
Track 15
Filename C:\EAC rips\15 - Theme for the Eulipions - Recitation - Instrumental - Vocal.wav
Peak level 99.7 %
Extraction speed 5.3 X
Track quality 100.0 %
Test CRC E1FCD6BC
Copy CRC E1FCD6BC
Accurately ripped (confidence 3) [E59795C5] (AR v1)
Copy OK
All tracks accurately ripped
No errors occurred
End of status report
---- CUETools DB Plugin V2.1.4
[CTDB TOCID: .TLn.hKZOdqSlktJhQlfN4WgstU-] disk not present in database
Submit result: .TLn.hKZOdqSlktJhQlfN4WgstU- has been uploaded
==== Log checksum B6701A2B752F4F433EA8053007609A9240A391D7CB150FCB875AC84CAD38AAA3 ====
 
Disc 2
Exact Audio Copy V1.0 beta 3 from 29. August 2011
EAC extraction logfile from 11. February 2014, 14:24
Tiziano Tononi & The Society of Freely Sincopated Organic Pulses / We Did It, We Did It! (Rahsaan & the None) (Disc 2)
Used drive : SlimtypeeNAU508 5 Adapter: 1 ID: 0
Read mode : Secure
Utilize accurate stream : Yes
Defeat audio cache : Yes
Make use of C2 pointers : No
Read offset correction : 6
Overread into Lead-In and Lead-Out : No
Fill up missing offset samples with silence : Yes
Delete leading and trailing silent blocks : No
Null samples used in CRC calculations : Yes
Used interface : Native Win32 interface for Win NT & 2000
Gap handling : Appended to previous track
Used output format : User Defined Encoder
Selected bitrate : 768 kBit/s
Quality : High
Add ID3 tag : No
Command line compressor : C:\Program Files (x86)\Exact Audio Copy\Flac\flac.exe
Additional command line options : -8 -V -T "ARTIST=%artist%" -T "TITLE=%title%" -T "ALBUM=%albumtitle%" -T "DATE=%year%" -T "TRACKNUMBER=%tracknr%" -T "GENRE=%genre%" -T "PERFORMER=%albuminterpret%" -T "COMPOSER=%composer%" %haslyrics%--tag-from-file=LYRICS="%lyricsfile%"%haslyrics% -T "ALBUMARTIST=%albumartist%" -T "DISCNUMBER=%cdnumber%" -T "TOTALDISCS=%totalcds%" -T "TOTALTRACKS=%numtracks%" -T "COMMENT=%comment%" %source% -o %dest%
TOC of the extracted CD
Track | Start | Length | Start sector | End sector
---------------------------------------------------------
1 | 0:00.00 | 1:16.74 | 0 | 5773
2 | 1:16.74 | 5:46.09 | 5774 | 31732
3 | 7:03.08 | 3:50.11 | 31733 | 48993
4 | 10:53.19 | 0:43.50 | 48994 | 52268
5 | 11:36.69 | 0:58.35 | 52269 | 56653
6 | 12:35.29 | 2:28.03 | 56654 | 67756
7 | 15:03.32 | 6:30.00 | 67757 | 97006
8 | 21:33.32 | 4:35.00 | 97007 | 117631
9 | 26:08.32 | 4:50.30 | 117632 | 139411
10 | 30:58.62 | 5:20.69 | 139412 | 163480
11 | 36:19.56 | 1:34.15 | 163481 | 170545
12 | 37:53.71 | 4:15.43 | 170546 | 189713
13 | 42:09.39 | 2:14.67 | 189714 | 199830
14 | 44:24.31 | 4:16.61 | 199831 | 219091
15 | 48:41.17 | 1:57.18 | 219092 | 227884
16 | 50:38.35 | 7:31.57 | 227885 | 261766
17 | 58:10.17 | 5:17.45 | 261767 | 285586
18 | 63:27.62 | 7:19.25 | 285587 | 318536
19 | 70:47.12 | 3:30.40 | 318537 | 334326
20 | 74:17.52 | 4:48.52 | 334327 | 355978
Track 1
Filename C:\EAC rips\01 - Isn't It That Crazy_.wav
Pre-gap length 0:00:02.00
Peak level 76.5 %
Extraction speed 1.1 X
Track quality 99.8 %
Test CRC 53569F65
Copy CRC 53569F65
Accurately ripped (confidence 3) [48CBA5C2] (AR v1)
Copy OK
Track 2
Filename C:\EAC rips\02 - Variable Density.wav
Peak level 94.9 %
Extraction speed 2.6 X
Track quality 100.0 %
Test CRC EA06288A
Copy CRC EA06288A
Accurately ripped (confidence 3) [70C36578] (AR v1)
Copy OK
Track 3
Filename C:\EAC rips\03 - Pedal Up.wav
Peak level 99.0 %
Extraction speed 2.7 X
Track quality 100.0 %
Test CRC 69976E1B
Copy CRC 69976E1B
Accurately ripped (confidence 3) [BA49CB3F] (AR v1)
Copy OK
Track 4
Filename C:\EAC rips\04 - Chamber Music....wav
Peak level 58.0 %
Extraction speed 1.7 X
Track quality 100.0 %
Test CRC E359B695
Copy CRC E359B695
Accurately ripped (confidence 3) [386F2CEA] (AR v1)
Copy OK
Track 5
Filename C:\EAC rips\05 - ... Getting Groovy.wav
Peak level 87.1 %
Extraction speed 2.0 X
Track quality 100.0 %
Test CRC 15F802AB
Copy CRC 15F802AB
Accurately ripped (confidence 3) [C5A0EC44] (AR v1)
Copy OK
Track 6
Filename C:\EAC rips\06 - Clickety Clack.wav
Peak level 91.8 %
Extraction speed 2.1 X
Track quality 99.9 %
Test CRC D53E3D66
Copy CRC D53E3D66
Accurately ripped (confidence 3) [A49F17E7] (AR v1)
Copy OK
Track 7
Filename C:\EAC rips\07 - Serenade to a Cuckoo.wav
Peak level 75.3 %
Extraction speed 3.3 X
Track quality 100.0 %
Test CRC 0C6DA32A
Copy CRC 0C6DA32A
Accurately ripped (confidence 3) [437344BF] (AR v1)
Copy OK
Track 8
Filename C:\EAC rips\08 - The Jitterbug Waltz.wav
Pre-gap length 0:00:05.45
Peak level 87.5 %
Extraction speed 3.4 X
Track quality 100.0 %
Test CRC 44E2F644
Copy CRC 44E2F644
Accurately ripped (confidence 3) [A0A3F834] (AR v1)
Copy OK
Track 9
Filename C:\EAC rips\09 - Petite Fleur.wav
Peak level 74.1 %
Extraction speed 3.6 X
Track quality 100.0 %
Test CRC 1FAAFEAF
Copy CRC 1FAAFEAF
Accurately ripped (confidence 3) [3A46ED31] (AR v1)
Copy OK
Track 10
Filename C:\EAC rips\10 - The Sacred Metal Forest.wav
Pre-gap length 0:00:05.45
Peak level 96.7 %
Extraction speed 3.8 X
Track quality 100.0 %
Test CRC 5DBE0170
Copy CRC 5DBE0170
Accurately ripped (confidence 3) [7FD42733] (AR v1)
Copy OK
Track 11
Filename C:\EAC rips\11 - Blacknuss.wav
Peak level 93.5 %
Extraction speed 3.1 X
Track quality 100.0 %
Test CRC BE38C3C8
Copy CRC BE38C3C8
Accurately ripped (confidence 3) [5A377B33] (AR v1)
Copy OK
Track 12
Filename C:\EAC rips\12 - 15 Miles - Electric.wav
Peak level 95.9 %
Extraction speed 4.0 X
Track quality 100.0 %
Test CRC 361AF1BB
Copy CRC 361AF1BB
Accurately ripped (confidence 3) [2F30D043] (AR v1)
Copy OK
Track 13
Filename C:\EAC rips\13 - The 3 Tenors.wav
Peak level 94.0 %
Extraction speed 3.6 X
Track quality 100.0 %
Test CRC B73B9A0C
Copy CRC B73B9A0C
Accurately ripped (confidence 3) [2D6B2A2C] (AR v1)
Copy OK
Track 14
Filename C:\EAC rips\14 - Spirits Up Above.wav
Peak level 97.4 %
Extraction speed 4.2 X
Track quality 100.0 %
Test CRC 24481738
Copy CRC 24481738
Accurately ripped (confidence 3) [272D01A1] (AR v1)
Copy OK
Track 15
Filename C:\EAC rips\15 - Olù-Batà.wav
Peak level 94.7 %
Extraction speed 3.7 X
Track quality 100.0 %
Test CRC 466C7C94
Copy CRC 466C7C94
Accurately ripped (confidence 3) [58ACDBEC] (AR v1)
Copy OK
Track 16
Filename C:\EAC rips\16 - Volunteered Slavery.wav
Peak level 93.4 %
Extraction speed 4.7 X
Track quality 100.0 %
Test CRC 81DE22FF
Copy CRC 81DE22FF
Accurately ripped (confidence 3) [B610D837] (AR v1)
Copy OK
Track 17
Filename C:\EAC rips\17 - Ecclusiastics.wav
Pre-gap length 0:00:05.45
Peak level 94.8 %
Extraction speed 4.6 X
Track quality 100.0 %
Test CRC CDF898C1
Copy CRC CDF898C1
Accurately ripped (confidence 3) [A5A9CE55] (AR v1)
Copy OK
Track 18
Filename C:\EAC rips\18 - Goodbye, Pork-Pie Hat.wav
Peak level 90.5 %
Extraction speed 5.0 X
Track quality 100.0 %
Test CRC 8C792095
Copy CRC 8C792095
Accurately ripped (confidence 3) [A93A706B] (AR v1)
Copy OK
Track 19
Filename C:\EAC rips\19 - Remember Rockefeller at Attica.wav
Peak level 85.4 %
Extraction speed 4.7 X
Track quality 100.0 %
Test CRC 408D8EDC
Copy CRC 408D8EDC
Accurately ripped (confidence 3) [6E3507B0] (AR v1)
Copy OK
Track 20
Filename C:\EAC rips\20 - Attica Blues.wav
Peak level 97.3 %
Extraction speed 4.9 X
Track quality 100.0 %
Test CRC 962CE3F8
Copy CRC 962CE3F8
Accurately ripped (confidence 3) [272AB12C] (AR v1)
Copy OK
All tracks accurately ripped
No errors occurred
End of status report
---- CUETools DB Plugin V2.1.4
[CTDB TOCID: TEbbvVEHTmVTA5ayvLuT6PfAU0w-] disk not present in database
Submit result: TEbbvVEHTmVTA5ayvLuT6PfAU0w- has been uploaded
==== Log checksum 8E9C5F462C7B2D0AF1B21A184E9DC9D1871138FEAA42E54117A0835A60797501 ====
 
Disc 3
Exact Audio Copy V1.0 beta 3 from 29. August 2011
EAC extraction logfile from 11. February 2014, 16:03
Tiziano Tononi & The Society of Freely Sincopated Organic Pulses / We Did It, We Did It! (Rahsaan & the None) (Disc 3)
Used drive : SlimtypeeNAU508 5 Adapter: 1 ID: 0
Read mode : Secure
Utilize accurate stream : Yes
Defeat audio cache : Yes
Make use of C2 pointers : No
Read offset correction : 6
Overread into Lead-In and Lead-Out : No
Fill up missing offset samples with silence : Yes
Delete leading and trailing silent blocks : No
Null samples used in CRC calculations : Yes
Used interface : Native Win32 interface for Win NT & 2000
Gap handling : Appended to previous track
Used output format : User Defined Encoder
Selected bitrate : 768 kBit/s
Quality : High
Add ID3 tag : No
Command line compressor : C:\Program Files (x86)\Exact Audio Copy\Flac\flac.exe
Additional command line options : -8 -V -T "ARTIST=%artist%" -T "TITLE=%title%" -T "ALBUM=%albumtitle%" -T "DATE=%year%" -T "TRACKNUMBER=%tracknr%" -T "GENRE=%genre%" -T "PERFORMER=%albuminterpret%" -T "COMPOSER=%composer%" %haslyrics%--tag-from-file=LYRICS="%lyricsfile%"%haslyrics% -T "ALBUMARTIST=%albumartist%" -T "DISCNUMBER=%cdnumber%" -T "TOTALDISCS=%totalcds%" -T "TOTALTRACKS=%numtracks%" -T "COMMENT=%comment%" %source% -o %dest%
TOC of the extracted CD
Track | Start | Length | Start sector | End sector
---------------------------------------------------------
1 | 0:00.00 | 0:39.58 | 0 | 2982
2 | 0:39.58 | 3:46.69 | 2983 | 20001
3 | 4:26.52 | 4:41.61 | 20002 | 41137
4 | 9:08.38 | 1:43.59 | 41138 | 48921
5 | 10:52.22 | 2:45.22 | 48922 | 61318
6 | 13:37.44 | 2:53.66 | 61319 | 74359
7 | 16:31.35 | 3:11.50 | 74360 | 88734
8 | 19:43.10 | 5:15.40 | 88735 | 112399
9 | 24:58.50 | 3:01.45 | 112400 | 126019
10 | 28:00.20 | 6:08.03 | 126020 | 153622
11 | 34:08.23 | 10:37.18 | 153623 | 201415
12 | 44:45.41 | 2:07.57 | 201416 | 210997
13 | 46:53.23 | 7:33.43 | 210998 | 245015
14 | 54:26.66 | 11:11.00 | 245016 | 295340
15 | 65:37.66 | 4:12.12 | 295341 | 314252
16 | 69:50.03 | 4:31.04 | 314253 | 334581
17 | 74:21.07 | 4:07.41 | 334582 | 353147
Track 1
Filename C:\EAC rips\01 - Orchestral De-Tuning #2 in Gb.wav
Pre-gap length 0:00:02.00
Peak level 41.7 %
Extraction speed 1.3 X
Track quality 100.0 %
Test CRC F0A1827B
Copy CRC F0A1827B
Accurately ripped (confidence 3) [4AACC7CA] (AR v1)
Copy OK
Track 2
Filename C:\EAC rips\02 - Gongs, 5'S & 7'S.wav
Peak level 84.2 %
Extraction speed 2.4 X
Track quality 100.0 %
Test CRC 74BA2D8A
Copy CRC 74BA2D8A
Accurately ripped (confidence 3) [BD830BEC] (AR v1)
Copy OK
Track 3
Filename C:\EAC rips\03 - Rip, Rig & Panic.wav
Peak level 86.5 %
Extraction speed 2.7 X
Track quality 100.0 %
Test CRC E67BD0B1
Copy CRC E67BD0B1
Accurately ripped (confidence 3) [C9BA04A6] (AR v1)
Copy OK
Track 4
Filename C:\EAC rips\04 - Mistical Movement.wav
Peak level 58.8 %
Extraction speed 2.3 X
Track quality 100.0 %
Test CRC 62C6A50D
Copy CRC 62C6A50D
Accurately ripped (confidence 3) [E794107F] (AR v1)
Copy OK
Track 5
Filename C:\EAC rips\05 - Slippery, Hippery, Flippery.wav
Peak level 95.5 %
Extraction speed 2.7 X
Track quality 100.0 %
Test CRC BC86BF8C
Copy CRC BC86BF8C
Accurately ripped (confidence 3) [C45038A9] (AR v1)
Copy OK
Track 6
Filename C:\EAC rips\06 - White Noise, No Noise.wav
Peak level 92.7 %
Extraction speed 2.8 X
Track quality 100.0 %
Test CRC A1B42697
Copy CRC A1B42697
Accurately ripped (confidence 3) [5F192067] (AR v1)
Copy OK
Track 7
Filename C:\EAC rips\07 - Narrow Bolero (The Jungle Version).wav
Peak level 96.1 %
Extraction speed 2.9 X
Track quality 100.0 %
Test CRC 931A0DAD
Copy CRC 931A0DAD
Accurately ripped (confidence 3) [4A162929] (AR v1)
Copy OK
Track 8
Filename C:\EAC rips\08 - No Tonic Press.wav
Peak level 95.6 %
Extraction speed 3.4 X
Track quality 100.0 %
Test CRC 9E222780
Copy CRC 9E222780
Accurately ripped (confidence 3) [70F63FB9] (AR v1)
Copy OK
Track 9
Filename C:\EAC rips\09 - Misterioso.wav
Pre-gap length 0:00:05.45
Peak level 95.3 %
Extraction speed 2.6 X
Track quality 99.9 %
Test CRC 05300630
Copy CRC 05300630
Accurately ripped (confidence 3) [EE33E24E] (AR v1)
Copy OK
Track 10
Filename C:\EAC rips\10 - After the Rain.wav
Peak level 78.8 %
Extraction speed 3.8 X
Track quality 100.0 %
Test CRC 3D0CF7F0
Copy CRC 3D0CF7F0
Accurately ripped (confidence 3) [AA3C6AB1] (AR v1)
Copy OK
Track 11
Filename C:\EAC rips\11 - Ebrauqs.wav
Pre-gap length 0:00:05.45
Peak level 92.7 %
Extraction speed 4.3 X
Track quality 100.0 %
Test CRC 7ED2AAE4
Copy CRC 7ED2AAE4
Accurately ripped (confidence 3) [6332A6FC] (AR v1)
Copy OK
Track 12
Filename C:\EAC rips\12 - The Multiphonics Tuba Trio.wav
Peak level 88.2 %
Extraction speed 3.6 X
Track quality 100.0 %
Test CRC 7CFA8A5B
Copy CRC 7CFA8A5B
Accurately ripped (confidence 3) [29381F1D] (AR v1)
Copy OK
Track 13
Filename C:\EAC rips\13 - Slippery, Hippery, Flippery.wav
Peak level 98.9 %
Extraction speed 4.5 X
Track quality 100.0 %
Test CRC 9605FD5F
Copy CRC 9605FD5F
Accurately ripped (confidence 3) [6B64C801] (AR v1)
Copy OK
Track 14
Filename C:\EAC rips\14 - Juarez.wav
Peak level 97.0 %
Extraction speed 4.5 X
Track quality 99.9 %
Test CRC AC6D79E7
Copy CRC AC6D79E7
Accurately ripped (confidence 3) [47C2589F] (AR v1)
Copy OK
Track 15
Filename C:\EAC rips\15 - Master Blaster.wav
Pre-gap length 0:00:05.45
Peak level 94.6 %
Extraction speed 4.8 X
Track quality 100.0 %
Test CRC AF5F57F2
Copy CRC AF5F57F2
Accurately ripped (confidence 3) [E7D5DB06] (AR v1)
Copy OK
Track 16
Filename C:\EAC rips\16 - Hear My Train 'A Comin'.wav
Peak level 98.1 %
Extraction speed 4.7 X
Track quality 100.0 %
Test CRC 49F14E18
Copy CRC 49F14E18
Accurately ripped (confidence 3) [9755DE85] (AR v1)
Copy OK
Track 17
Filename C:\EAC rips\17 - Redemption Song.wav
Peak level 87.2 %
Extraction speed 4.8 X
Track quality 100.0 %
Test CRC 023D2DB4
Copy CRC 023D2DB4
Accurately ripped (confidence 2) [FC133922] (AR v1)
Copy OK
All tracks accurately ripped
No errors occurred
End of status report
---- CUETools DB Plugin V2.1.4
[CTDB TOCID: 4z1fATLnKLPTel96f6VWlLza8Cc-] disk not present in database
Submit result: 4z1fATLnKLPTel96f6VWlLza8Cc- has been uploaded
==== Log checksum 6973FC319FE4DCAE16BD91C7BB8C0C0A76BEA996C3DDA356C0184158EDA47ED3 ====
 
Содержание индексной карты (.CUE)
 
Disc 1
REM GENRE Jazz
REM DATE 2000
REM DISCID CB12560F
REM COMMENT "ExactAudioCopy v1.0b3"
PERFORMER "Tiziano Tononi & The Society of Freely Sincopated Organic Pulses"
TITLE "We Did It, We Did It! (Rahsaan & the None) (Disc 1)"
FILE "01 - De-Tuning #1.wav" WAVE
TRACK 01 AUDIO
TITLE "De-Tuning #1"
PERFORMER "Tiziano Tononi & The Society of Freely Sincopated Organic Pulses"
INDEX 01 00:00:00
FILE "02 - Amazing Grace.wav" WAVE
TRACK 02 AUDIO
TITLE "Amazing Grace"
PERFORMER "Tiziano Tononi & The Society of Freely Sincopated Organic Pulses"
INDEX 01 00:00:00
FILE "03 - Open Strings.wav" WAVE
TRACK 03 AUDIO
TITLE "Open Strings"
PERFORMER "Tiziano Tononi & The Society of Freely Sincopated Organic Pulses"
INDEX 01 00:00:00
FILE "04 - We Free Kings.wav" WAVE
TRACK 04 AUDIO
TITLE "We Free Kings"
PERFORMER "Tiziano Tononi & The Society of Freely Sincopated Organic Pulses"
INDEX 01 00:00:00
FILE "05 - A Handful of Fives.wav" WAVE
TRACK 05 AUDIO
TITLE "A Handful of Fives"
PERFORMER "Tiziano Tononi & The Society of Freely Sincopated Organic Pulses"
INDEX 01 00:00:00
FILE "06 - Duality.wav" WAVE
TRACK 06 AUDIO
TITLE "Duality"
PERFORMER "Tiziano Tononi & The Society of Freely Sincopated Organic Pulses"
INDEX 01 00:00:00
FILE "07 - A Laugh for Rory.wav" WAVE
TRACK 07 AUDIO
TITLE "A Laugh for Rory"
PERFORMER "Tiziano Tononi & The Society of Freely Sincopated Organic Pulses"
INDEX 01 00:00:00
TRACK 08 AUDIO
TITLE "The Creole Love Call"
PERFORMER "Tiziano Tononi & The Society of Freely Sincopated Organic Pulses"
INDEX 00 04:24:55
FILE "08 - The Creole Love Call.wav" WAVE
INDEX 01 00:00:00
FILE "09 - The Mooche.wav" WAVE
TRACK 09 AUDIO
TITLE "The Mooche"
PERFORMER "Tiziano Tononi & The Society of Freely Sincopated Organic Pulses"
INDEX 01 00:00:00
TRACK 10 AUDIO
TITLE "Happy, Sad, Like Everybody Else"
PERFORMER "Tiziano Tononi & The Society of Freely Sincopated Organic Pulses"
INDEX 00 12:08:02
FILE "10 - Happy, Sad, Like Everybody Else.wav" WAVE
INDEX 01 00:00:00
FILE "11 - The Black & Crazy Blues.wav" WAVE
TRACK 11 AUDIO
TITLE "The Black & Crazy Blues"
PERFORMER "Tiziano Tononi & The Society of Freely Sincopated Organic Pulses"
INDEX 01 00:00:00
FILE "12 - Juxtaposition - Against - With.wav" WAVE
TRACK 12 AUDIO
TITLE "Juxtaposition: Against / With"
PERFORMER "Tiziano Tononi & The Society of Freely Sincopated Organic Pulses"
INDEX 01 00:00:00
FILE "13 - Geo(metrics).wav" WAVE
TRACK 13 AUDIO
TITLE "Geo(metrics)"
PERFORMER "Tiziano Tononi & The Society of Freely Sincopated Organic Pulses"
INDEX 01 00:00:00
FILE "14 - The Inflated Tear.wav" WAVE
TRACK 14 AUDIO
TITLE "The Inflated Tear"
PERFORMER "Tiziano Tononi & The Society of Freely Sincopated Organic Pulses"
INDEX 01 00:00:00
FILE "15 - Theme for the Eulipions - Recitation - Instrumental - Vocal.wav" WAVE
TRACK 15 AUDIO
TITLE "Theme for the Eulipions: Recitation / Instrumental / Vocal"
PERFORMER "Tiziano Tononi & The Society of Freely Sincopated Organic Pulses"
INDEX 01 00:00:00
 
Disc 2
REM GENRE Jazz
REM DATE 2000
REM DISCID 33128A14
REM COMMENT "ExactAudioCopy v1.0b3"
PERFORMER "Tiziano Tononi & The Society of Freely Sincopated Organic Pulses"
TITLE "We Did It, We Did It! (Rahsaan & the None) (Disc 2)"
FILE "01 - Isn't It That Crazy_.wav" WAVE
TRACK 01 AUDIO
TITLE "Isn't It That Crazy?"
PERFORMER "Tiziano Tononi & The Society of Freely Sincopated Organic Pulses"
INDEX 01 00:00:00
FILE "02 - Variable Density.wav" WAVE
TRACK 02 AUDIO
TITLE "Variable Density"
PERFORMER "Tiziano Tononi & The Society of Freely Sincopated Organic Pulses"
INDEX 01 00:00:00
FILE "03 - Pedal Up.wav" WAVE
TRACK 03 AUDIO
TITLE "Pedal Up"
PERFORMER "Tiziano Tononi & The Society of Freely Sincopated Organic Pulses"
INDEX 01 00:00:00
FILE "04 - Chamber Music....wav" WAVE
TRACK 04 AUDIO
TITLE "Chamber Music..."
PERFORMER "Tiziano Tononi & The Society of Freely Sincopated Organic Pulses"
INDEX 01 00:00:00
FILE "05 - ... Getting Groovy.wav" WAVE
TRACK 05 AUDIO
TITLE "... Getting Groovy"
PERFORMER "Tiziano Tononi & The Society of Freely Sincopated Organic Pulses"
INDEX 01 00:00:00
FILE "06 - Clickety Clack.wav" WAVE
TRACK 06 AUDIO
TITLE "Clickety Clack"
PERFORMER "Tiziano Tononi & The Society of Freely Sincopated Organic Pulses"
INDEX 01 00:00:00
FILE "07 - Serenade to a Cuckoo.wav" WAVE
TRACK 07 AUDIO
TITLE "Serenade to a Cuckoo"
PERFORMER "Tiziano Tononi & The Society of Freely Sincopated Organic Pulses"
INDEX 01 00:00:00
TRACK 08 AUDIO
TITLE "The Jitterbug Waltz"
PERFORMER "Tiziano Tononi & The Society of Freely Sincopated Organic Pulses"
INDEX 00 06:24:30
FILE "08 - The Jitterbug Waltz.wav" WAVE
INDEX 01 00:00:00
FILE "09 - Petite Fleur.wav" WAVE
TRACK 09 AUDIO
TITLE "Petite Fleur"
PERFORMER "Tiziano Tononi & The Society of Freely Sincopated Organic Pulses"
INDEX 01 00:00:00
TRACK 10 AUDIO
TITLE "The Sacred Metal Forest"
PERFORMER "Tiziano Tononi & The Society of Freely Sincopated Organic Pulses"
INDEX 00 04:44:60
FILE "10 - The Sacred Metal Forest.wav" WAVE
INDEX 01 00:00:00
FILE "11 - Blacknuss.wav" WAVE
TRACK 11 AUDIO
TITLE "Blacknuss"
PERFORMER "Tiziano Tononi & The Society of Freely Sincopated Organic Pulses"
INDEX 01 00:00:00
FILE "12 - 15 Miles - Electric.wav" WAVE
TRACK 12 AUDIO
TITLE "15 Miles / Electric"
PERFORMER "Tiziano Tononi & The Society of Freely Sincopated Organic Pulses"
INDEX 01 00:00:00
FILE "13 - The 3 Tenors.wav" WAVE
TRACK 13 AUDIO
TITLE "The 3 Tenors"
PERFORMER "Tiziano Tononi & The Society of Freely Sincopated Organic Pulses"
INDEX 01 00:00:00
FILE "14 - Spirits Up Above.wav" WAVE
TRACK 14 AUDIO
TITLE "Spirits Up Above"
PERFORMER "Tiziano Tononi & The Society of Freely Sincopated Organic Pulses"
INDEX 01 00:00:00
FILE "15 - Olù-Batà.wav" WAVE
TRACK 15 AUDIO
TITLE "Olù-Batà"
PERFORMER "Tiziano Tononi & The Society of Freely Sincopated Organic Pulses"
INDEX 01 00:00:00
FILE "16 - Volunteered Slavery.wav" WAVE
TRACK 16 AUDIO
TITLE "Volunteered Slavery"
PERFORMER "Tiziano Tononi & The Society of Freely Sincopated Organic Pulses"
INDEX 01 00:00:00
TRACK 17 AUDIO
TITLE "Ecclusiastics"
PERFORMER "Tiziano Tononi & The Society of Freely Sincopated Organic Pulses"
INDEX 00 07:26:12
FILE "17 - Ecclusiastics.wav" WAVE
INDEX 01 00:00:00
FILE "18 - Goodbye, Pork-Pie Hat.wav" WAVE
TRACK 18 AUDIO
TITLE "Goodbye, Pork-Pie Hat"
PERFORMER "Tiziano Tononi & The Society of Freely Sincopated Organic Pulses"
INDEX 01 00:00:00
FILE "19 - Remember Rockefeller at Attica.wav" WAVE
TRACK 19 AUDIO
TITLE "Remember Rockefeller at Attica"
PERFORMER "Tiziano Tononi & The Society of Freely Sincopated Organic Pulses"
INDEX 01 00:00:00
FILE "20 - Attica Blues.wav" WAVE
TRACK 20 AUDIO
TITLE "Attica Blues"
PERFORMER "Tiziano Tononi & The Society of Freely Sincopated Organic Pulses"
INDEX 01 00:00:00
 
Disc 3
REM GENRE Jazz
REM DATE 2000
REM DISCID F7126411
REM COMMENT "ExactAudioCopy v1.0b3"
PERFORMER "Tiziano Tononi & The Society of Freely Sincopated Organic Pulses"
TITLE "We Did It, We Did It! (Rahsaan & the None) (Disc 3)"
FILE "01 - Orchestral De-Tuning #2 in Gb.wav" WAVE
TRACK 01 AUDIO
TITLE "Orchestral De-Tuning #2 in Gb"
PERFORMER "Tiziano Tononi & The Society of Freely Sincopated Organic Pulses"
INDEX 01 00:00:00
FILE "02 - Gongs, 5'S & 7'S.wav" WAVE
TRACK 02 AUDIO
TITLE "Gongs, 5'S & 7'S"
PERFORMER "Tiziano Tononi & The Society of Freely Sincopated Organic Pulses"
INDEX 01 00:00:00
FILE "03 - Rip, Rig & Panic.wav" WAVE
TRACK 03 AUDIO
TITLE "Rip, Rig & Panic"
PERFORMER "Tiziano Tononi & The Society of Freely Sincopated Organic Pulses"
INDEX 01 00:00:00
FILE "04 - Mistical Movement.wav" WAVE
TRACK 04 AUDIO
TITLE "Mistical Movement"
PERFORMER "Tiziano Tononi & The Society of Freely Sincopated Organic Pulses"
INDEX 01 00:00:00
FILE "05 - Slippery, Hippery, Flippery.wav" WAVE
TRACK 05 AUDIO
TITLE "Slippery, Hippery, Flippery"
PERFORMER "Tiziano Tononi & The Society of Freely Sincopated Organic Pulses"
INDEX 01 00:00:00
FILE "06 - White Noise, No Noise.wav" WAVE
TRACK 06 AUDIO
TITLE "White Noise, No Noise"
PERFORMER "Tiziano Tononi & The Society of Freely Sincopated Organic Pulses"
INDEX 01 00:00:00
FILE "07 - Narrow Bolero (The Jungle Version).wav" WAVE
TRACK 07 AUDIO
TITLE "Narrow Bolero (The Jungle Version)"
PERFORMER "Tiziano Tononi & The Society of Freely Sincopated Organic Pulses"
INDEX 01 00:00:00
FILE "08 - No Tonic Press.wav" WAVE
TRACK 08 AUDIO
TITLE "No Tonic Press"
PERFORMER "Tiziano Tononi & The Society of Freely Sincopated Organic Pulses"
INDEX 01 00:00:00
TRACK 09 AUDIO
TITLE "Misterioso"
PERFORMER "Tiziano Tononi & The Society of Freely Sincopated Organic Pulses"
INDEX 00 05:09:70
FILE "09 - Misterioso.wav" WAVE
INDEX 01 00:00:00
FILE "10 - After the Rain.wav" WAVE
TRACK 10 AUDIO
TITLE "After the Rain"
PERFORMER "Tiziano Tononi & The Society of Freely Sincopated Organic Pulses"
INDEX 01 00:00:00
TRACK 11 AUDIO
TITLE "Ebrauqs"
PERFORMER "Tiziano Tononi & The Society of Freely Sincopated Organic Pulses"
INDEX 00 06:02:33
FILE "11 - Ebrauqs.wav" WAVE
INDEX 01 00:00:00
FILE "12 - The Multiphonics Tuba Trio.wav" WAVE
TRACK 12 AUDIO
TITLE "The Multiphonics Tuba Trio"
PERFORMER "Tiziano Tononi & The Society of Freely Sincopated Organic Pulses"
INDEX 01 00:00:00
FILE "13 - Slippery, Hippery, Flippery.wav" WAVE
TRACK 13 AUDIO
TITLE "Slippery, Hippery, Flippery"
PERFORMER "Tiziano Tononi & The Society of Freely Sincopated Organic Pulses"
INDEX 01 00:00:00
FILE "14 - Juarez.wav" WAVE
TRACK 14 AUDIO
TITLE "Juarez"
PERFORMER "Tiziano Tononi & The Society of Freely Sincopated Organic Pulses"
INDEX 01 00:00:00
TRACK 15 AUDIO
TITLE "Master Blaster"
PERFORMER "Tiziano Tononi & The Society of Freely Sincopated Organic Pulses"
INDEX 00 11:05:30
FILE "15 - Master Blaster.wav" WAVE
INDEX 01 00:00:00
FILE "16 - Hear My Train 'A Comin'.wav" WAVE
TRACK 16 AUDIO
TITLE "Hear My Train 'A Comin'"
PERFORMER "Tiziano Tononi & The Society of Freely Sincopated Organic Pulses"
INDEX 01 00:00:00
FILE "17 - Redemption Song.wav" WAVE
TRACK 17 AUDIO
TITLE "Redemption Song"
PERFORMER "Tiziano Tononi & The Society of Freely Sincopated Organic Pulses"
INDEX 01 00:00:00
 
Состав
По всем вопросам пишите личное сообщение пользователю M0p94ok.
23:31
277
Нет комментариев. Ваш будет первым!