Вы используете незарегистрированную версию компонента "Вкладки"!

Поиск

(Free Jazz) [CD] Andrea Centazzo, Gianluigi Trovesi - Shock!! - 1999, FLAC (tracks+.cue), lossless

(Free Jazz) [CD] Andrea Centazzo, Gianluigi Trovesi - Shock!! - 1999, FLAC (tracks+.cue), lossless
Треклист:
Andrea Centazzo, Gianluigi Trovesi / Shock!!
Жанр: Free Jazz
Носитель: CD
Страна-производитель диска: Italy
Год издания: 1999
Издатель (лейбл): New Tone Records
Номер по каталогу: rdc 5043 2
Аудиокодек: FLAC (*.flac)
Тип рипа: tracks+.cue
Битрейт аудио: lossless
Продолжительность: 41:45
Источник (релизер): gssmg7
Наличие сканов в содержимом раздачи: да
Треклист:
1. Shock (9:32)
2. Cen. Tro. (4:08)
3. Tro. Ce. (6:17)
4. Shockmaker's Shop (6:53)
5. A Day In Tunisia (... Or Somewhere Round There) (9:54)
6. She Shook The Shock & Shot (4:58)
 
Лог создания рипа
Exact Audio Copy V1.0 beta 2 from 29. April 2011
EAC extraction logfile from 12. February 2014, 20:13
Andrea Centazzo, Gianluigi Trovesi / Shock!!
Used drive : Optiarc DVD RW AD-5280S Adapter: 1 ID: 1
Read mode : Secure
Utilize accurate stream : Yes
Defeat audio cache : Yes
Make use of C2 pointers : No
Read offset correction : 48
Overread into Lead-In and Lead-Out : No
Fill up missing offset samples with silence : Yes
Delete leading and trailing silent blocks : No
Null samples used in CRC calculations : Yes
Used interface : Installed external ASPI interface
Gap handling : Appended to previous track
Used output format : User Defined Encoder
Selected bitrate : 128 kBit/s
Quality : High
Add ID3 tag : No
Command line compressor : C:\Program Files\FLAC\flac.exe
Additional command line options : -V -8 -T "Genre=%genre%" -T "Artist=%artist%" -T "Title=%title%" -T "Album=%albumtitle%" -T "Date=%year%" -T "Tracknumber=%tracknr%" -T "Comment=%comment%" %source%
TOC of the extracted CD
Track | Start | Length | Start sector | End sector
---------------------------------------------------------
1 | 0:00.00 | 9:32.00 | 0 | 42899
2 | 9:32.00 | 4:08.35 | 42900 | 61534
3 | 13:40.35 | 6:17.22 | 61535 | 89831
4 | 19:57.57 | 6:54.08 | 89832 | 120889
5 | 26:51.65 | 9:54.52 | 120890 | 165491
6 | 36:46.42 | 4:59.18 | 165492 | 187934
Track 1
Filename C:\Andrea Centazzo, Gianluigi Trovesi (1984) - Shock!!\01 - Shock.wav
Pre-gap length 0:00:02.00
Peak level 99.9 %
Extraction speed 2.6 X
Track quality 99.9 %
Test CRC 6C563CAE
Copy CRC 6C563CAE
Track not present in AccurateRip database
Copy OK
Track 2
Filename C:\Andrea Centazzo, Gianluigi Trovesi (1984) - Shock!!\02 - Cen.Tro.wav
Peak level 99.9 %
Extraction speed 2.9 X
Track quality 100.0 %
Test CRC 63713A12
Copy CRC 63713A12
Track not present in AccurateRip database
Copy OK
Track 3
Filename C:\Andrea Centazzo, Gianluigi Trovesi (1984) - Shock!!\03 - Tro. Ce.wav
Peak level 99.9 %
Extraction speed 3.4 X
Track quality 100.0 %
Test CRC E0A76E6B
Copy CRC E0A76E6B
Track not present in AccurateRip database
Copy OK
Track 4
Filename C:\Andrea Centazzo, Gianluigi Trovesi (1984) - Shock!!\04 - Shockmaker's Shop.wav
Peak level 99.9 %
Extraction speed 3.7 X
Track quality 100.0 %
Test CRC 5FE7CAB1
Copy CRC 5FE7CAB1
Track not present in AccurateRip database
Copy OK
Track 5
Filename C:\Andrea Centazzo, Gianluigi Trovesi (1984) - Shock!!\05 - A Day in Tunisia (... or somewhere round there).wav
Peak level 99.9 %
Extraction speed 4.2 X
Track quality 100.0 %
Test CRC 8DFCC65F
Copy CRC 8DFCC65F
Track not present in AccurateRip database
Copy OK
Track 6
Filename C:\Andrea Centazzo, Gianluigi Trovesi (1984) - Shock!!\06 - She shook the shock & shot.wav
Peak level 99.9 %
Extraction speed 4.3 X
Track quality 100.0 %
Test CRC 53E637C2
Copy CRC 53E637C2
Track not present in AccurateRip database
Copy OK
None of the tracks are present in the AccurateRip database
No errors occurred
End of status report
==== Log checksum 272C42627166DC80DC7CEF98EAF8ABE2A48A4E601060BDF91A84F80CBFBEB1ED ====
 
Содержание индексной карты (.CUE)
REM GENRE Jazz
REM DATE 1984
REM DISCID 4909C906
REM COMMENT "ExactAudioCopy v1.0b2"
PERFORMER "Andrea Centazzo, Gianluigi Trovesi"
TITLE "Shock!!"
FILE "01 - Shock.wav" WAVE
TRACK 01 AUDIO
TITLE "Shock"
PERFORMER "Andrea Centazzo, Gianluigi Trovesi"
INDEX 01 00:00:00
FILE "02 - Cen.Tro.wav" WAVE
TRACK 02 AUDIO
TITLE "Cen.Tro"
PERFORMER "Andrea Centazzo, Gianluigi Trovesi"
INDEX 01 00:00:00
FILE "03 - Tro. Ce.wav" WAVE
TRACK 03 AUDIO
TITLE "Tro. Ce"
PERFORMER "Andrea Centazzo, Gianluigi Trovesi"
INDEX 01 00:00:00
FILE "04 - Shockmaker's Shop.wav" WAVE
TRACK 04 AUDIO
TITLE "Shockmaker's Shop"
PERFORMER "Andrea Centazzo, Gianluigi Trovesi"
INDEX 01 00:00:00
FILE "05 - A Day in Tunisia (... or somewhere round there).wav" WAVE
TRACK 05 AUDIO
TITLE "A Day in Tunisia (... or somewhere round there)"
PERFORMER "Andrea Centazzo, Gianluigi Trovesi"
INDEX 01 00:00:00
FILE "06 - She shook the shock & shot.wav" WAVE
TRACK 06 AUDIO
TITLE "She shook the shock & shot"
PERFORMER "Andrea Centazzo, Gianluigi Trovesi"
INDEX 01 00:00:00
 
Доп. информация
Recorded in Bologna, Italy, January 1984
 
Об альбоме (сборнике)
Andrea Centazzo and Gianluigi Trovesi, two among the most important Italian jazz musicians, recorded these tracks in 1984. Centazzo and Trovesi met the first time in New York in 1978. Centazzo was touring the States to perform with some of the most outstanding exponents of the improvised music scene of the time: Eugene Chadbourne, Henry Kaiser, Rova Sax Quartet, John Zorn, Tom Cora, just to name a few. Most of the music of this tour was recorded and then issued on Parachute, Metalanguage and Ictus Records. Music we are proposing again in CD format in this Series: The Bay, with Rova Saxophone Quartet; Environment for Sextet, with a group including Zorn, Bradfield, Chadbourne, Kondo e Corra; Usa Concerts West with J. Carter, Vinnie Golia, Greg Goodman; Usa Concerts East with J. Zorn, LaDonna Smith, D. Williams, T. Kondo, E. Chadbourne and others. Trovesi, rising star of the jazz music in Italy, was playing at The Public Theater with Giorgio Gaslini band, ironically the same group Centazzo started his carrier wuth and had just left. The unforeseen meeting between the two musicians, who know of each other but never met personally, began a relationship to be continued in the following years. Two years after Trovesi became member of the MittelEuropa Orchestra, touring and recording with this large ensemble that at the time was collecting some of the best Italian musicians and some European guest stars (Carlos Zingaro, Albert Mangelsdorf, Theo Jorgesmann, a.o.). The feeling between Trovesi and Centazzo gave birth also to a duo set. Several concerts and this recording are the result of that friendship. As you can easily notice exists between the two players a very rare community. The music is not just a live jam sessions, but the various moments and moods carefully planned. The tracks alternate moments very intense to other more subtle and refined. Trovesi, with a very personal phrasing, shows already his interest in the ethnic traditions that today are a trademark of his style. Centazzo goes along with the reedman with a percussive technique that includes the drum kit but also melodic instruments as marimbas, vibraphone, with a full display of his musical language that alternate more percussive moments to others more fluid and sparse. ~ felmay.it
Not shocking, but wonderfully atmospheric. When the Mitteleuropa Orchesta broke up, two of its members joined forces for a series of concerts. Their rapport was great; Centazzo says they had 'the ability to reinvent on stage every night what was essentially a conversation between friends.' And they have plenty to say: while Andrea crashes, Trovesi hums, swoops, and decorates the evolving rhythm. It's a world of sound, a whirl of emotion ' and a shock to the system. Andrea, persistent on tom-toms, brings us to the onset of 'Shock'. Trovesi, on slippery soprano, trills the nervy theme with hints of Steve Lacy. It then becomes a march: as cymbals form a mist, tiny notes peep from the sax, the chirps of a distant cricket. The beat returns, and Trovesi floats mournful notes with the touch of an oboe ' dignified, and profoundly sad. The 'nature' mood comes back, only more turbulent. A high bleat leads to deep rumbles, the bass drum gets frantic, and Trovesi more so. One final squawk at the end, bolstered by echo, and he creeps away in a fog of percussion. An electric moment.'Cen.Tro.' is an eternity in four minutes. Life goes on at the dock: a bell tolls, a horse snorts, and the foghorn sounds. (Trovesi does both on a bass clarinet.) The bells turn more exotic, and now we hear gongs: the port is somewhere East. Colors drift and the sun slowly rises; nothing happens but the mood, and that is enough. 'Tro.Ce.' is a world away: Trovesi on a vigorous march, the strident notes proud but worried. It sounds like modern classical; the clarinet's quizzical notes fall on a bed of echo. Andrea takes to the blocks, and percussion trades with the quiet reed ' shades of Takemitsu. Now the gongs, and while Andrea goes wild, Trovesi stays dignified ' a wonderful contrast. Andrea is certainly a different drummer, and I'm marching next to Gianluigi! 'Shockmaker' is frantic, Trovesi on what sounds like amplified alto. As Andrea goes strong, his partner erupts: greasy lines of blurred notes, some late-night struttin' and an aggression we didn't know he had. The closest thing here to straight jazz, and a wonderful dose of fury. 'Day in Tunisia' has a walking marimba, and a line close to Ravel's 'Bolero'. It's bass clarinet with th stance of a baritone sax; he answers himself with dubbed clarinet, high and peaceful. Mist rolls in as several basses make a bagpipe drone, joined by gongs. It's the harbor sound of 'Cen.Tro.', only louder. Andrea's solo takes a lot of bells, intermittent drums, and layered shimmers ' intense, but calm. The parts are disparate, but it works as a whole ' like the group itself. When recording was done, the musicians left the studio and were startled to find themselves in a blinding snowstorm. (They ended up having to walk home.) So wrapped in their music, the men lost all contact with the outside world. Hearing this, toy can see why: between thunders and whispers, the intricate lines and earthy moods, they create their own environment. And you'll feel right at home. ~ aaj staff, allaboutjazz.com
 
Состав
Andrea Centazzo - premiere drum set, paiste gongs & cymbals, vibraphone, marimba & bass marimba
Gianluigi Trovesi - bass clarinet, piccolo clarinet, alto & soprano sax
По всем вопросам пишите личное сообщение пользователю M0p94ok.
23:31
179
Нет комментариев. Ваш будет первым!