Вы используете незарегистрированную версию компонента "Вкладки"!

Поиск

(Avant-Garde Jazz, Free Jazz, Modal Music) [CD] John Coltrane & Alice Coltrane - Cosmic Music - 1968, FLAC (tracks+.cue), lossless

(Avant-Garde Jazz, Free Jazz, Modal Music) [CD] John Coltrane & Alice Coltrane - Cosmic Music - 1968, FLAC (tracks+.cue), lossless
Треклист:
John Coltrane & Alice Coltrane - Cosmic Music
Жанр: Avant-Garde Jazz, Free Jazz, Modal Music
Носитель: CD
Год издания: 1968
Издатель (лейбл): Impulse!
Аудиокодек: FLAC (*.flac)
Тип рипа: tracks+.cue
Битрейт аудио: lossless
Продолжительность: 34:10
Источник (релизер): verbatim32 (what)
Наличие сканов в содержимом раздачи: нет
Треклист:
01. Manifestation (J.Coltrane) - 11:36
02. Lord, Help Me to Be (A.Coltrane) - 7:30
03. Reverend King (J.Coltrane) - 11:03
04. The Sun (A.Coltrane) - 4:01
Состав:
John Coltrane (#1,3) - saxophone, clarinet, vocals
Pharoah Sanders - flute, saxophone, vocals
Alice Coltrane - piano
Jimmy Garrison - bass
Rashied Ali (#1,3), Ben Riley (#2,4) - drums, percussion
Ray Appleton - percussion (#1,3)
#1,3 are John Coltrane's last recordings from 1966 and #2,4 are Alice Coltrane's from 1968.
 
Лог создания рипа
Exact Audio Copy V1.0 beta 3 from 29. August 2011
EAC extraction logfile from 7. February 2014, 16:12
John Coltrane & Alice Coltrane / Cosmic Music
Used drive : HL-DT-STBD-RE BH16NS40 Adapter: 0 ID: 0
Read mode : Secure
Utilize accurate stream : Yes
Defeat audio cache : Yes
Make use of C2 pointers : No
Read offset correction : 6
Overread into Lead-In and Lead-Out : No
Fill up missing offset samples with silence : Yes
Delete leading and trailing silent blocks : No
Null samples used in CRC calculations : Yes
Used interface : Native Win32 interface for Win NT & 2000
Gap handling : Appended to previous track
Used output format : User Defined Encoder
Selected bitrate : 1024 kBit/s
Quality : High
Add ID3 tag : No
Command line compressor : B:\Programmes\Exact Audio Copy\FLAC\FLAC.EXE
Additional command line options : -8 -V -T "ARTIST=%artist%" -T "TITLE=%title%" -T "ALBUM=%albumtitle%" -T "DATE=%year%" -T "TRACKNUMBER=%tracknr%" -T "GENRE=%genre%" -T "PERFORMER=%albuminterpret%" -T "COMPOSER=%composer%" %haslyrics%--tag-from-file=LYRICS="%lyricsfile%"%haslyrics% -T "ALBUMARTIST=%albumartist%" -T "DISCNUMBER=%cdnumber%" -T "TOTALDISCS=%totalcds%" -T "TOTALTRACKS=%numtracks%" -T "COMMENT=%comment%" %source% -o %dest%
TOC of the extracted CD
Track | Start | Length | Start sector | End sector
---------------------------------------------------------
1 | 0:00.00 | 11:35.46 | 0 | 52170
2 | 11:35.46 | 7:30.23 | 52171 | 85943
3 | 19:05.69 | 11:03.26 | 85944 | 135694
4 | 30:09.20 | 4:00.67 | 135695 | 153761
Track 1
Filename A:\Music\What.cd\Ripped\01.Manifestation.wav
Pre-gap length 0:00:02.00
Peak level 96.6 %
Extraction speed 1.4 X
Track quality 100.0 %
Test CRC 2E2ED90B
Copy CRC 2E2ED90B
Accurately ripped (confidence 10) [006E3695] (AR v2)
Copy OK
Track 2
Filename A:\Music\What.cd\Ripped\02.Lord, Help Me To Be.wav
Peak level 96.1 %
Extraction speed 1.6 X
Track quality 100.0 %
Test CRC 84021ABA
Copy CRC 84021ABA
Accurately ripped (confidence 10) [F24D4786] (AR v2)
Copy OK
Track 3
Filename A:\Music\What.cd\Ripped\03.Reverend King.wav
Peak level 100.0 %
Extraction speed 1.8 X
Track quality 99.9 %
Test CRC A86F76EB
Copy CRC A86F76EB
Accurately ripped (confidence 10) [5F2E133E] (AR v2)
Copy OK
Track 4
Filename A:\Music\What.cd\Ripped\04.The Sun.wav
Peak level 98.2 %
Extraction speed 1.8 X
Track quality 100.0 %
Test CRC A43F027A
Copy CRC A43F027A
Accurately ripped (confidence 9) [256EBB6D] (AR v2)
Copy OK
All tracks accurately ripped
No errors occurred
End of status report
---- CUETools DB Plugin V2.1.3
[CTDB TOCID: 2FG6KVySc8c_DsORRa40dVJ0gVU-] found, Submit result: 2FG6KVySc8c_DsORRa40dVJ0gVU- has been confirmed
[df429580] (6/7) Accurately ripped
[7af8c933] (1/7) No match
==== Log checksum 354A127E7DC3C7CF27ECCCAA5F5314675375407958A922534C87DE291D6E02A5 ====
 
Содержание индексной карты (.CUE)
REM GENRE Jazz
REM DATE 1968
REM DISCID 30080204
REM COMMENT "ExactAudioCopy v1.0b3"
CATALOG 0602527768335
PERFORMER "John Coltrane & Alice Coltrane"
TITLE "Cosmic Music"
FILE "01 - Manifestation.wav" WAVE
TRACK 01 AUDIO
TITLE "Manifestation"
PERFORMER "John Coltrane & Alice Coltrane"
ISRC USUM71110768
INDEX 01 00:00:00
FILE "02 - Lord, Help Me to Be.wav" WAVE
TRACK 02 AUDIO
TITLE "Lord, Help Me to Be"
PERFORMER "John Coltrane & Alice Coltrane"
ISRC USUM71110768
INDEX 01 00:00:00
FILE "03 - Reverend King.wav" WAVE
TRACK 03 AUDIO
TITLE "Reverend King"
PERFORMER "John Coltrane & Alice Coltrane"
ISRC USUM71110773
INDEX 01 00:00:00
FILE "04 - The Sun.wav" WAVE
TRACK 04 AUDIO
TITLE "The Sun"
PERFORMER "John Coltrane & Alice Coltrane"
ISRC USUM71110773
INDEX 01 00:00:00
 
Отчет CUETools
[CUETools log; Date: 12.02.2014 2:45:34; Version: 2.1.4]
[CTDB TOCID: 2FG6KVySc8c_DsORRa40dVJ0gVU-] found.
Track | CTDB Status
1 | (8/8) Accurately ripped
2 | (8/8) Accurately ripped
3 | (8/8) Accurately ripped
4 | (7/8) Accurately ripped
[AccurateRip ID: 00068634-00198a25-30080204] found.
Track [ CRC | V2 ] Status
01 [2cf5b079|006e3695] (00+10/10) Accurately ripped
02 [cc175578|f24d4786] (00+10/10) Accurately ripped
03 [87fd5e45|5f2e133e] (00+10/10) Accurately ripped
04 [f59bf3cd|256ebb6d] (00+09/09) Accurately ripped
Track Peak [ CRC32 ] [W/O NULL] [ LOG ]
-- 100,0 [0F6ED08E] [909388F6]
01 96,6 [2E2ED90B] [4A59AA00] CRC32
02 96,1 [84021ABA] [1F94AD3C] CRC32
03 100,0 [A86F76EB] [F3AB8421] CRC32
04 98,2 [A43F027A] [D9AEA7BC] CRC32
 
Review by Thom Jurek
Issued in 1968, more than a year after John Coltrane's death, Cosmic Music is co-credited to John and Alice Coltrane. Trane appears on only two of the four tracks here (they are also the longest): "Manifestation" and "Dr. King." They were both cut in February of 1966 at Coast Recorders in San Francisco, with the great saxophonist fronting his final quintet with Alice, Pharoah Sanders, Jimmy Garrison, Rashied Ali, and Ray Appleton adding percussion. "Manifestation" is also the first recorded instance of Sanders playing the piccolo in addition to his tenor saxophone; he takes an extended solo on the instrument. "Dr. King" was written to honor the civil rights leader during his lifetime. King's assassination occurred less than a year after the saxophonist's death. While it begins with a sketchy modal theme, the track soon moves toward the far side of the quintet's free expression. The mix on both these tracks is a bit problematic. Much like Om, which was also released in 1968, the sound on these two cuts is somewhat muddy, hinting that these were idea sketches and not finished works. The piano and bass are all but hidden except during solos, and Ali's fiery drumming is often out of balance -- either buried or too bright. By contrast, the other two tracks, "Lord, Help Me to Be" and "The Sun," offer exceptional fidelity. They are essentially Alice's first two recorded pieces for Impulse after signing a solo contract with the label. She is accompanied by Sanders, Garrison, and drummer Ben Riley. These are both fine pieces, with Alice's bluesy modal chord constructions at the fore, recorded in their home studio. The final track, while only a touch over four minutes, is a fine vehicle for Alice's signature pianism. While this record holds up quite well -- despite the problems of sound mentioned above -- it is still a minor Impulse album compared to some of the saxophonist's master works.
По всем вопросам пишите личное сообщение пользователю M0p94ok.
23:30
342
Нет комментариев. Ваш будет первым!