Поиск

(Avant-Garde, Modern Creative, Free Jazz, Classical, Contemporary, Nine Winds) [CD] Vinny Golia The Chamber Trio - Worldwide & Portable {Nine Winds NWCD0143, USA} - 1990, FLAC (tracks+.cue), lossless

(Avant-Garde, Modern Creative, Free Jazz, Classical, Contemporary, Nine Winds) [CD] Vinny Golia The Chamber Trio - Worldwide & Portable {Nine Winds NWCD0143, USA} - 1990, FLAC (tracks+.cue), lossless
Треклист:
Vinny Golia The Chamber Trio / Worldwide & Portable
Жанр: Avant-Garde, Modern Creative, Free Jazz, Classical, Contemporary, Nine Winds
Носитель: CD
Страна-производитель диска (релиза): USA
Год издания: 1990
Издатель (лейбл): 9 Winds Records
Номер по каталогу: NWCD0143
Аудиокодек: FLAC (*.flac)
Тип рипа: tracks+.cue
Битрейт аудио: lossless
Продолжительность: 00:58:18
Источник (релизер): k4r70x4
Наличие сканов в содержимом раздачи: нет
Треклист:
1. Walter's Mysterious Feelings 4:55
2. Some People Who Surprise You 7:39
3. Year End Sail 5:50
4. Palantir 10:07
5. Ostio-Bronti (For Franz Kafka) 7:30
6. Constant Companion 6:08
7. The Disbelief Of Kathy Hunt 16:06
Credits▼
Double Bass – Ken Filiano
Piano – Wayne Peet
Piccolo Flute, Flute [Alto], Flute [Bass], Sopranino Saxophone, Soprano Saxophone, Baritone Saxophone, Bassoon, Bass Clarinet, Flute [Japanese Folk], Panpipes, Shakuhachi – Vinny Golia
Notes▼
Recorded Feb. 7-8, 1986 at Killzone Studios
 
Лог создания рипа (EAC Log)
Exact Audio Copy V0.99 prebeta 5 from 4. May 2009
EAC extraction logfile from 22. July 2010, 11:27
Vinny Golia / Worldwide & Portable
Used drive : HL-DT-STDVDRAM GH41N Adapter: 3 ID: 0
Read mode : Secure
Utilize accurate stream : Yes
Defeat audio cache : Yes
Make use of C2 pointers : No
Read offset correction : 667
Overread into Lead-In and Lead-Out : No
Fill up missing offset samples with silence : Yes
Delete leading and trailing silent blocks : No
Null samples used in CRC calculations : Yes
Used interface : Native Win32 interface for Win NT & 2000
Gap handling : Appended to previous track
Used output format : User Defined Encoder
Selected bitrate : 768 kBit/s
Quality : High
Add ID3 tag : No
Command line compressor : C:\Program Files\Exact Audio Copy\FLAC\FLAC.EXE
Additional command line options : -V -8 -T "artist=%a" -T "title=%t" -T "album=%g" -T "date=%y" -T "tracknumber=%n" -T "genre=%m" %s
TOC of the extracted CD
Track | Start | Length | Start sector | End sector
---------------------------------------------------------
1 | 0:00.00 | 4:58.35 | 0 | 22384
2 | 4:58.35 | 7:45.37 | 22385 | 57296
3 | 12:43.72 | 5:55.63 | 57297 | 83984
4 | 18:39.60 | 10:09.02 | 83985 | 129661
5 | 28:48.62 | 7:34.00 | 129662 | 163711
6 | 36:22.62 | 6:11.30 | 163712 | 191566
7 | 42:34.17 | 16:06.10 | 191567 | 264026
Track 1
Filename C:\Nine Winds\Vinny Golia - The Chamber Trio - Worldwide & Portable (1990) [FLAC]\01 Walter's Mysterious Feelings.wav
Pre-gap length 0:00:02.00
Peak level 79.0 %
Track quality 100.0 %
Test CRC 79B766AB
Copy CRC 79B766AB
Copy OK
Track 2
Filename C:\Nine Winds\Vinny Golia - The Chamber Trio - Worldwide & Portable (1990) [FLAC]\02 Some People Who Surprise You.wav
Pre-gap length 0:00:02.64
Peak level 83.4 %
Track quality 100.0 %
Test CRC E20A03E0
Copy CRC E20A03E0
Copy OK
Track 3
Filename C:\Nine Winds\Vinny Golia - The Chamber Trio - Worldwide & Portable (1990) [FLAC]\03 Year End Sail.wav
Pre-gap length 0:00:05.60
Peak level 85.1 %
Track quality 100.0 %
Test CRC A82EA79D
Copy CRC A82EA79D
Copy OK
Track 4
Filename C:\Nine Winds\Vinny Golia - The Chamber Trio - Worldwide & Portable (1990) [FLAC]\04 Palantir.wav
Pre-gap length 0:00:05.46
Peak level 84.4 %
Track quality 100.0 %
Test CRC A7C59EAE
Copy CRC A7C59EAE
Copy OK
Track 5
Filename C:\Nine Winds\Vinny Golia - The Chamber Trio - Worldwide & Portable (1990) [FLAC]\05 Osti-Brotzi (for Franz Kafka).wav
Pre-gap length 0:00:01.86
Peak level 83.7 %
Track quality 100.0 %
Test CRC C4F6CFB5
Copy CRC C4F6CFB5
Copy OK
Track 6
Filename C:\Nine Winds\Vinny Golia - The Chamber Trio - Worldwide & Portable (1990) [FLAC]\06 Constant Companion.wav
Pre-gap length 0:00:03.26
Peak level 77.3 %
Track quality 100.0 %
Test CRC 8D72C833
Copy CRC 8D72C833
Copy OK
Track 7
Filename C:\Nine Winds\Vinny Golia - The Chamber Trio - Worldwide & Portable (1990) [FLAC]\07 The Disbelief of Kathy Hunt.wav
Pre-gap length 0:00:02.82
Peak level 87.3 %
Track quality 100.0 %
Test CRC 9BF0E6EE
Copy CRC 9BF0E6EE
Copy OK
No errors occurred
End of status report
 
Содержание индексной карты (.CUE)
REM DATE 1990
REM DISCID 480DC007
REM COMMENT "ExactAudioCopy v0.99pb5"
FILE "01 Walter's Mysterious Feelings.wav" WAVE
TRACK 01 AUDIO
INDEX 01 00:00:00
TRACK 02 AUDIO
INDEX 00 04:55:62
FILE "02 Some People Who Surprise You.wav" WAVE
INDEX 01 00:00:00
TRACK 03 AUDIO
INDEX 00 07:39:67
FILE "03 Year End Sail.wav" WAVE
INDEX 01 00:00:00
TRACK 04 AUDIO
INDEX 00 05:50:28
FILE "04 Palantir.wav" WAVE
INDEX 01 00:00:00
TRACK 05 AUDIO
INDEX 00 10:07:12
FILE "05 Osti-Brotzi (for Franz Kafka).wav" WAVE
INDEX 01 00:00:00
TRACK 06 AUDIO
INDEX 00 07:30:55
FILE "06 Constant Companion.wav" WAVE
INDEX 01 00:00:00
TRACK 07 AUDIO
INDEX 00 06:08:43
FILE "07 The Disbelief of Kathy Hunt.wav" WAVE
INDEX 01 00:00:00
 
Об альбоме (сборнике)
Allmusic:
Review by Richard S. Ginell
In a trio date with pianist Wayne Peet and bassist Ken Filiano, Golia tackles seven of his own compositions that firmly straddle the lines of classical, jazz and world music, utilizing a bewildering variety of wind instruments. Through the course of the CD, Golia's endlessly flexible embouchure can be heard coping easily with the diverse demands of the piccolo, alto and bass flutes, sopranino, soprano and baritone saxes, bassoon, bass clarinet, Japanese folk flute and shakuhachi, and pan pipes! The compositions are usually abstract and moody, sometimes directionless and self-indulgent, always allergic to predictable structures and developments, outfitted with titles that border on the Zappa-esque ("Walter's Mysterious Feelings," "The Disbelief of Kathy Hunt"). "Ostio-Bronti (For Franz Kafka)" is the closest the collection comes to a jazz pulse, with a uniquely quirky theme and swinging, often atonal improvisations. As is often the case on Nine Winds, there are no liner notes about the music -- as if that would help.
По всем вопросам пишите личное сообщение пользователю M0p94ok.
07:56
182
Нет комментариев. Ваш будет первым!