Вы используете незарегистрированную версию компонента "Вкладки"!

Поиск

(Avant-Garde Jazz, Contemporary Jazz) [CD] Guus Janssen (Michael Rabinovitch, Peter van Bergen, Vincent Chancey, Ernst Glerum, Wim Janssen) - Hollywood O.K. Pieces - 2004, FLAC (tracks+.cue), lossless

(Avant-Garde Jazz, Contemporary Jazz) [CD] Guus Janssen (Michael Rabinovitch, Peter van Bergen, Vincent Chancey, Ernst Glerum, Wim Janssen) - Hollywood O.K. Pieces - 2004, FLAC (tracks+.cue), lossless
Треклист:
Guus Janssen / Hollywood O.K. Pieces
Жанр: Avant-Garde Jazz, Contemporary Jazz
Носитель: CD
Страна-производитель диска (релиза): Netherlands
Год издания: 2004
Издатель (лейбл): GeestGronden
Номер по каталогу: Cd GG 08
Аудиокодек: FLAC (*.flac)
Тип рипа: tracks+.cue
Битрейт аудио: lossless
Продолжительность: 65:55
Источник (релизер): cd
Наличие сканов в содержимом раздачи: нет
Треклист:
1 Angelicanzone 9:25
2 Slow Step 9:05
3 Havank 10:34
4 Konitzology 6:17
5 Passage 5:18
6 Memory Protect 6:56
7 Tricot 8:34
8 April 9:47
 
Лог создания рипа
Exact Audio Copy V1.0 beta 3 from 29. August 2011
EAC extraction logfile from 30. December 2014, 16:19
Guus Janssen / Hollywood O.K. Pieces
Used drive : ASUS DRW-24F1ST a Adapter: 0 ID: 0
Read mode : Secure
Utilize accurate stream : Yes
Defeat audio cache : Yes
Make use of C2 pointers : No
Read offset correction : 6
Overread into Lead-In and Lead-Out : No
Fill up missing offset samples with silence : Yes
Delete leading and trailing silent blocks : No
Null samples used in CRC calculations : Yes
Used interface : Native Win32 interface for Win NT & 2000
Gap handling : Appended to previous track
Used output format : User Defined Encoder
Selected bitrate : 320 kBit/s
Quality : High
Add ID3 tag : No
Command line compressor : D:\Programs\Exact Audio Copy\Flac\flac.exe
Additional command line options : -V -8 -T "Genre=%genre%" -T "Artist=%artist%" -T "Title=%title%" -T "Album=%albumtitle%" -T "Date=%year%" -T "Tracknumber=%tracknr%" -T "Comment=%comment%" %source%
TOC of the extracted CD
Track | Start | Length | Start sector | End sector
---------------------------------------------------------
1 | 0:00.00 | 9:24.65 | 0 | 42364
2 | 9:24.65 | 9:04.66 | 42365 | 83230
3 | 18:29.56 | 10:33.74 | 83231 | 130779
4 | 29:03.55 | 6:13.71 | 130780 | 158825
5 | 35:17.51 | 5:18.42 | 158826 | 182717
6 | 40:36.18 | 6:55.69 | 182718 | 213911
7 | 47:32.12 | 8:34.00 | 213912 | 252461
8 | 56:06.12 | 9:49.21 | 252462 | 296657
Track 1
Filename D:\EAC\01 Angelicanzone.wav
Pre-gap length 0:00:02.00
Peak level 93.2 %
Extraction speed 5.3 X
Track quality 100.0 %
Test CRC DFDB47E2
Copy CRC DFDB47E2
Copy OK
Track 2
Filename D:\EAC\02 Slow Step.wav
Peak level 74.4 %
Extraction speed 6.3 X
Track quality 100.0 %
Test CRC BBC8BB14
Copy CRC BBC8BB14
Copy OK
Track 3
Filename D:\EAC\03 Havank.wav
Peak level 74.2 %
Extraction speed 7.2 X
Track quality 100.0 %
Test CRC 25197119
Copy CRC 25197119
Copy OK
Track 4
Filename D:\EAC\04 Konitzology.wav
Peak level 78.8 %
Extraction speed 7.6 X
Track quality 100.0 %
Test CRC B3153784
Copy CRC B3153784
Copy OK
Track 5
Filename D:\EAC\05 Passage.wav
Peak level 77.2 %
Extraction speed 7.8 X
Track quality 100.0 %
Test CRC 8203593F
Copy CRC 8203593F
Copy OK
Track 6
Filename D:\EAC\06 Memory Protect.wav
Peak level 98.6 %
Extraction speed 8.2 X
Track quality 100.0 %
Test CRC 0A71BEF8
Copy CRC 0A71BEF8
Copy OK
Track 7
Filename D:\EAC\07 Tricot.wav
Peak level 97.7 %
Extraction speed 9.1 X
Track quality 100.0 %
Test CRC 7AB3F32A
Copy CRC 7AB3F32A
Copy OK
Track 8
Filename D:\EAC\08 April.wav
Peak level 87.5 %
Extraction speed 9.2 X
Track quality 99.9 %
Test CRC D6DC5E3D
Copy CRC D6DC5E3D
Copy OK
No errors occurred
End of status report
==== Log checksum AB8BE52C73B47017C0428C089CEBB77E21850C145B31ECB159CEE4FB7F167471 ====
 
Содержание индексной карты (.CUE)
REM GENRE Jazz
REM DATE 2004
REM DISCID 6D0F7308
REM COMMENT "ExactAudioCopy v1.0b3"
PERFORMER "Guus Janssen"
TITLE "Hollywood O.K. Pieces "
FILE "01 Angelicanzone.wav" WAVE
TRACK 01 AUDIO
TITLE "Angelicanzone"
PERFORMER "Guus Janssen"
INDEX 01 00:00:00
FILE "02 Slow Step.wav" WAVE
TRACK 02 AUDIO
TITLE "Slow Step"
PERFORMER "Guus Janssen"
INDEX 01 00:00:00
FILE "03 Havank.wav" WAVE
TRACK 03 AUDIO
TITLE "Havank"
PERFORMER "Guus Janssen"
INDEX 01 00:00:00
FILE "04 Konitzology.wav" WAVE
TRACK 04 AUDIO
TITLE "Konitzology"
PERFORMER "Guus Janssen"
INDEX 01 00:00:00
FILE "05 Passage.wav" WAVE
TRACK 05 AUDIO
TITLE "Passage"
PERFORMER "Guus Janssen"
INDEX 01 00:00:00
FILE "06 Memory Protect.wav" WAVE
TRACK 06 AUDIO
TITLE "Memory Protect"
PERFORMER "Guus Janssen"
INDEX 01 00:00:00
FILE "07 Tricot.wav" WAVE
TRACK 07 AUDIO
TITLE "Tricot"
PERFORMER "Guus Janssen"
INDEX 01 00:00:00
FILE "08 April.wav" WAVE
TRACK 08 AUDIO
TITLE "April"
PERFORMER "Guus Janssen"
INDEX 01 00:00:00
Доп. информация: Recorded on 6 April 2001 at the BIMhuis, Amsterdam and on 8 April 2001 at Luxtheater, Nijmegen
 
Состав
Bassoon – Michael Rabinovitch
Clarinet – Peter van Bergen
Double Bass – Ernst Glerum
Drums – Wim Janssen
French Horn – Vincent Chancey
Piano, Composed By – Guus Janssen
По всем вопросам пишите личное сообщение пользователю M0p94ok.
07:57
125
Нет комментариев. Ваш будет первым!